[REL] Don't Talk to Strange Men (1962)

User avatar
starfish21
Posts: 3376
Likes:
Joined: Tue May 23, 2006 1:00 am

[REL] Don't Talk to Strange Men (1962)

Postby starfish21 » Fri Dec 16, 2011 11:08 am  15 likes

Don't Talk to Strange Men(1962)

Heres one for Loverboy,very similar to the classic LB release 'Never Take Sweets from a Stranger (1960)' viewtopic.php?f=24&t=4598&hilit=Never+Take+Sweets+from+a+Stranger
the same young girl (Janina Faye) stars in both movies.i got this in dvd form and ripped it to a more manageable size.
it's in amazing condition considering it is over 50 years old.

http://www.imdb.com/title/tt0206692/



Complete name : Don't Talk to Strange Men.avi
Format : AVI
Format/Info : Audio Video Interleave
Format profile : OpenDML
File size : 1.10 GiB
Duration : 1h 3mn
Overall bit rate : 2 468 Kbps
Writing application : Magic0515

Video
ID : 0
Format : MPEG-4 Visual
Format profile : Advanced Simple@L4
Format settings, BVOP : No
Format settings, QPel : No
Format settings, GMC : No warppoints
Format settings, Matrix : Default (H.263)
Codec ID : XVID
Codec ID/Hint : XviD
Duration : 1h 3mn
Bit rate : 2 325 Kbps
Width : 640 pixels
Height : 480 pixels
Display aspect ratio : 4:3
Frame rate : 25.000 fps
Color space : YUV
Chroma subsampling : 4:2:0
Bit depth : 8 bits
Scan type : Progressive
Compression mode : Lossy
Bits/(Pixel*Frame) : 0.303
Stream size : 1.04 GiB (94%)
Writing library : Magic0432

Audio
ID : 1
Format : MPEG Audio
Format version : Version 1
Format profile : Layer 3
Mode : Joint stereo
Mode extension : MS Stereo
Codec ID : 55
Codec ID/Hint : MP3
Duration : 1h 3mn
Bit rate mode : Constant
Bit rate : 128 Kbps
Channel(s) : 2 channels
Sampling rate : 44.1 KHz
Compression mode : Lossy
Stream size : 5.88 MiB (1%)
Alignment : Aligned on interleaves
Interleave, duration : 259 ms (6.49 video frames)


[Image] [Image]

[Image] [Image]

[Image] [Image]

[Image] [Image]

[Image] [Image]

[Image] [Image]

[Image] [Image]

Like this post to see ed2k links  [1.10 Gb]
katzenjammer
Posts: 621
Likes:
Joined: Mon Sep 01, 2008 1:00 am

Re: [REL] Don't Talk to Strange Men(1962)

Postby katzenjammer » Fri Dec 16, 2011 8:23 pm  1 likes

Thanks for this release. Gems like this is always hearted.
User avatar
Phuzzy4242
Site Admin
Posts: 6625
Likes:
Joined: Sun Aug 23, 2009 1:00 am

Re: [REL] Don't Talk to Strange Men(1962)

Postby Phuzzy4242 » Fri Dec 16, 2011 11:07 pm  0 likes

I love these movies - the ones filmed when the world was still grayscale. :lol: Thanks starfish.

Return to “United Kingdom”

Who is online

Users browsing this forum: No registered users and 1 guest