[REL] Horrid Henry - the Movie (2011)

User avatar
vidman49
Posts: 398
Likes:
Joined: Sat Feb 05, 2011 1:00 am

[REL] Horrid Henry - the Movie (2011)

Postby vidman49 » Mon Dec 19, 2011 12:30 am  15 likes

Horrid Henry obviously centers around a boy, but girls are prominent throughout the movie.

When Henry fails yet again to hand in his homework for the umpteenth time, he has no idea that this will set off a chain of events which will see him forming an unlikely alliance with Moody Margaret, the infuriating girl next door, and his irritating little brother Perfect Peter, outwitting corrupt School Inspectors and toppling an evil Headmaster, winning a talent contest and facing his ultimate nemesis with no way out - all because he is trying to save the very school which he has always professed to hate!

http://www.imdb.com/title/tt1684555/

[Image]

[Image]

[Image]

[Image]

[Image]

Like this post to see ed2k links  [698.61 Mb]
User avatar
ptguardian
Posts: 4479
Likes:
Joined: Wed Sep 17, 2008 1:00 am

Re: [REL] Horrid Henry - the Movie (2011)

Postby ptguardian » Mon Dec 19, 2011 12:39 am  0 likes

How is the aspect ratio on this?
The reason I ask is when this first hit the scene for some amateurish reason there was several copies where the aspect was way off. I was unfortunate to have grabbed one of them. :(

Shorty says this was by Sam so most likely it is correct. Still wondering though? :)

Love them redheads. :heart
User avatar
vidman49
Posts: 398
Likes:
Joined: Sat Feb 05, 2011 1:00 am

Re: [REL] Horrid Henry - the Movie (2011)

Postby vidman49 » Mon Dec 19, 2011 1:53 am  0 likes

ptguardian wrote:How is the aspect ratio on this?
The reason I ask is when this first hit the scene for some amateurish reason there was several copies where the aspect was way off. I was unfortunate to have grabbed one of them. :(


If you are asking if the picture is distorted (too narrow or wide), it looks fine. Every once in a while I run into a download that is distorted, but usually I can view it correctly by choosing to view it using a different aspect ratio with VLC player. This one views correctly without changing the aspect ratio.
User avatar
ptguardian
Posts: 4479
Likes:
Joined: Wed Sep 17, 2008 1:00 am

Re: [REL] Horrid Henry - the Movie (2011)

Postby ptguardian » Mon Dec 19, 2011 2:01 am  0 likes

I like to watch on my TV and my external media players I use don't correct aspect. I was disappointed I didn't get to enjoy the download I had.

Your copy is what I wanted, I am grabbing now. :icon_cool2

Thanks again vidman
User avatar
loverboy
Posts: 1832
Likes:
Joined: Sun Sep 24, 2006 1:00 am

Re: [REL] Horrid Henry - the Movie (2011)

Postby loverboy » Fri Jun 21, 2013 9:36 pm  12 likes

Upgrade, with English subs for those who can't bear to miss a word. Pity the plot & general level of acting can't be upgraded at the same time but at least Moody Margaret is kinda cute even if she does seem to wear the same clothes throughout the movie.....

[Image][Image][Image][Image][Image][Image]
[Image][Image][Image][Image][Image][Image]
[Image][Image][Image][Image][Image][Image]
[Image][Image][Image][Image][Image][Image]

General
Complete name : Horrid Henry The Movie 2011 isoRip loverboy.mp4
Format : MPEG-4
Format profile : Base Media / Version 2
Codec ID : mp42
File size : 1.42 GiB
Duration : 1h 32mn
Overall bit rate mode : Variable
Overall bit rate : 2 192 Kbps
Writing application : HandBrake 0.9.8 2012071700

Video
ID : 1
Format : AVC
Format/Info : Advanced Video Codec
Format profile : Main@L3.0
Format settings, CABAC : Yes
Format settings, ReFrames : 4 frames
Codec ID : avc1
Codec ID/Info : Advanced Video Coding
Duration : 1h 32mn
Bit rate mode : Variable
Bit rate : 2 000 Kbps
Width : 720 pixels
Height : 400 pixels
Display aspect ratio : 16:9
Frame rate mode : Variable
Frame rate : 23.976 fps
Minimum frame rate : 19.969 fps
Maximum frame rate : 59.920 fps
Color space : YUV
Chroma subsampling : 4:2:0
Bit depth : 8 bits
Scan type : Progressive
Bits/(Pixel*Frame) : 0.290
Stream size : 1.31 GiB (92%)
Writing library : x264 core 120

Audio
ID : 2
Format : AAC
Format/Info : Advanced Audio Codec
Format profile : LC
Codec ID : 40
Duration : 1h 32mn
Bit rate mode : Variable
Bit rate : 160 Kbps
Maximum bit rate : 261 Kbps
Channel(s) : 2 channels
Channel positions : Front: L R
Sampling rate : 48.0 KHz
Compression mode : Lossy
Delay relative to video : 83ms
Stream size : 106 MiB (7%)
Language : English


Ripped from a dvdr posted at The Wild Boys. Usual appreciation & thanks apply. The closed caption subs in this were a pig to extract & there were plenty of errors. I've edited them in Subtitle Workshop & batch deleted various weird characters with Notepad but if anyone notices anything obviously wrong either let me know or just post some corrected subs.

Like this post to see ed2k links  [1.42 Gb]

English subtitles.
Like this post to see ed2k links  [148.5 Kb]

lb
User avatar
emuler
Posts: 4104
Likes:
Joined: Sun Apr 02, 2006 1:00 am

Re: [REL] Horrid Henry - the Movie (2011)

Postby emuler » Sat Jun 22, 2013 6:01 am  0 likes

Thanks, lb. :D
User avatar
emuler
Posts: 4104
Likes:
Joined: Sun Apr 02, 2006 1:00 am

Re: [REL] Horrid Henry - the Movie (2011)

Postby emuler » Tue Jun 25, 2013 7:06 pm  0 likes

:D Good fun. Even the boys went around dressed as girls. :lol: And look out for the ass biting Vicious Vicky. :lol:

No fewer than three actors of Indian origin. :thumbsup

Return to “United Kingdom”

Who is online

Users browsing this forum: No registered users and 1 guest