[REL] Doombeach (1989)

User avatar
loverboy
Posts: 1832
Likes:
Joined: Sun Sep 24, 2006 1:00 am

[REL] Doombeach (1989)

Postby loverboy » Mon Jan 28, 2013 10:36 pm  23 likes

http://www.imdb.com/title/tt0172347/

When his mother becomes pregnant, their social worker prescribes a seaside holiday in care for 12-year-old Gavin (Jeremy Coaster), while his mother stays with her sister.

It is still summer term, so the only holidays Gavin enjoys are when truanting from the junior school to which an administrative error has sent him. His only school friend is eight-year-old Terri (Donna Tribe), tomboy leader of the local "mafia", who claims Gavin as her boyfriend, much to his disgust.

After swimming at the beach one day, Mark, a young member of the gang, develops paralysis – and while the adults diagnose natural causes, Gavin, who has "done conservation" at school, suspects pollution.

With the help of Miss Ricketts (Glenda Jackson), one of the more caring teachers, the children realise that accidental leakage from the nearby nuclear power station could be a factor. A suspicion compounded by the discovery of a diseased fish washed ashore.

When Mark dies, the kids know they must prove that the power station has something to hide. Aided by Miss Ricketts, who has been sacked from her post, they prepare to visit the area with a Geiger counter...


[Image][Image][Image][Image][Image][Image][Image][Image][Image][Image][Image][Image]

General
Complete name : Doombeach(1989-NR)\Doombeach.mp4
Format : MPEG-4
Format profile : Base Media
Codec ID : isom
File size : 684 MiB
Duration : 1h 12mn
Overall bit rate : 1 312 Kbps
Encoded date : UTC 2010-12-25 02:03:29
Tagged date : UTC 2010-12-25 02:03:29

Video
ID : 2
Format : AVC
Format/Info : Advanced Video Codec
Format profile : Baseline@L3.0
Format settings, CABAC : No
Format settings, ReFrames : 1 frame
Muxing mode : Container profile=Baseline@1.3
Codec ID : avc1
Codec ID/Info : Advanced Video Coding
Duration : 1h 12mn
Bit rate : 1 209 Kbps
Width : 640 pixels
Height : 480 pixels
Display aspect ratio : 4:3
Frame rate mode : Constant
Frame rate : 25.000 fps
Color space : YUV
Chroma subsampling : 4:2:0
Bit depth : 8 bits
Scan type : Progressive
Bits/(Pixel*Frame) : 0.157
Stream size : 630 MiB (92%)
Language : English

Audio
ID : 1
Format : AAC
Format/Info : Advanced Audio Codec
Format profile : LC
Codec ID : 40
Duration : 1h 12mn
Bit rate mode : Constant
Bit rate : 98.0 Kbps
Channel(s) : 2 channels
Channel positions : Front: L R
Sampling rate : 48.0 KHz
Compression mode : Lossy
Stream size : 51.1 MiB (7%)
Language : English


From the Children's Film Unit (CFU) & lifted straight from CG where it's a featured torrent.

Like this post to see ed2k links  [683.91 Mb]

lb
User avatar
Phuzzy4242
Site Admin
Posts: 6670
Likes:
Joined: Sun Aug 23, 2009 1:00 am

Re: [REL] Doombeach (1989)

Postby Phuzzy4242 » Tue Jan 29, 2013 1:20 am  0 likes

:thumbsup
User avatar
emuler
Posts: 4104
Likes:
Joined: Sun Apr 02, 2006 1:00 am

Re: [REL] Doombeach (1989)

Postby emuler » Tue Jan 29, 2013 2:01 am  0 likes

Lovely. Thanks, LB. :D

Return to “United Kingdom”

Who is online

Users browsing this forum: No registered users and 4 guests