[REL] Mockingbird Don't Sing (2001)

Rich
Posts: 2824
Likes:
Joined: Sat Feb 21, 2004 1:00 am

[REL] Mockingbird Don't Sing (2001)

Postby Rich » Tue Aug 03, 2004 2:17 pm  7 likes

Mockingbird Don't Sing (2001)

[Image]

On November 4, 1970 on The CBS Evening News, Walter Cronkite reported on a true, horrific story that was about to rock the country. A 13-year-old girl was discovered in the small Los Angeles suburb of Arcadia who was still in diapers, barely able to walk and unable to speak. Kept in severe isolation by her parents with virtually no human contact for more than 10 years, she was confined to her bedroom, tied to her potty-chair and left to fend for herself.

As Cronkite noted, it was one of the most horrendous cases of child abuse ever to surface. Much like an animal, the girl spat, sniffed and clawed. She had none of the traits or characteristics of conventional human behavior, nor could she comprehend such modern societal conveniences as silverware or bathroom etiquette. Her emotional development was practically non-existent, and she could not speak. With this heartbreaking story, the world was being introduced to a fragile, beautiful teenager who seemed and behaved like an infant, or Wild Child.


Code: Select all

Video:

Codec -> DivX 4 (OpenDivX)
Screensize -> 640x464
Frames/sec -> 25.000
Bitrate -> 845 kb/s

Audio:

Codec -> MP3
Bitrate -> 116 kb/s 58/ch VBR
FS -> 48000 Hz


Thanks go to Veritas for this release :D

Like this post to see ed2k links  [676.52 Mb]

Rich :)

http://www.imdb.com/title/tt0273822/
User avatar
starfish21
Posts: 3376
Likes:
Joined: Tue May 23, 2006 1:00 am

Re: [REL] Mockingbird Don't Sing (2001)

Postby starfish21 » Sun Jan 15, 2012 12:59 pm  20 likes

Another unhappy (true story) movie.

[Image] [Image] [Image] [Image]

[Image] [Image] [Image] [Image]

[Image] [Image] [Image] [Image]

[Image] [Image] [Image] [Image]

[Image] [Image] [Image] [Image]

[Image] [Image] [Image] [Image]

[Image] [Image] [Image]


General
Complete name : Mockingbird Don't Sing.avi
Format : AVI
Format/Info : Audio Video Interleave
File size : 899 MiB
Duration : 1h 35mn
Overall bit rate : 1 316 Kbps
Writing application : FairUse Wizard - http://fairusewizard.com
Writing library : The best and REALLY easy backup tool

Video
ID : 0
Format : MPEG-4 Visual
Format profile : Advanced Simple@L5
Format settings, BVOP : 1
Format settings, QPel : No
Format settings, GMC : No warppoints
Format settings, Matrix : Default (MPEG)
Muxing mode : Packed bitstream
Codec ID : XVID
Codec ID/Hint : XviD
Duration : 1h 35mn
Bit rate : 1 178 Kbps
Width : 592 pixels
Height : 432 pixels
Display aspect ratio : 1.370
Frame rate : 25.000 fps
Color space : YUV
Chroma subsampling : 4:2:0
Bit depth : 8 bits
Scan type : Progressive
Compression mode : Lossy
Bits/(Pixel*Frame) : 0.184
Stream size : 805 MiB (90%)
Writing library : XviD 1.2.0.dev47 (UTC 2006-11-01)

Audio
ID : 1
Format : MPEG Audio
Format version : Version 1
Format profile : Layer 3
Mode : Joint stereo
Mode extension : MS Stereo
Codec ID : 55
Codec ID/Hint : MP3
Duration : 1h 35mn
Bit rate mode : Constant
Bit rate : 128 Kbps
Channel(s) : 2 channels
Sampling rate : 48.0 KHz
Compression mode : Lossy
Stream size : 87.5 MiB (10%)
Alignment : Aligned on interleaves
Interleave, duration : 40 ms (1.00 video frame)
Interleave, preload duration : 504 ms
Writing library : LAME3.97
Encoding settings : -m j -V 4 -q 2 -lowpass 17 -b 128


Like this post to see ed2k links  [899.40 Mb]
User avatar
Phuzzy4242
Site Admin
Posts: 6623
Likes:
Joined: Sun Aug 23, 2009 1:00 am

Re: [REL] Mockingbird Don't Sing (2001)

Postby Phuzzy4242 » Sun Jan 15, 2012 5:21 pm  0 likes

It's hard to believe nobody ever commented on this film, including me, but I may have had it before joining FLM. This is a shocking film and made a big impression on me, especially since the story behind it is true. Looks like a nice upgrade starfish.
User avatar
starfish21
Posts: 3376
Likes:
Joined: Tue May 23, 2006 1:00 am

Re: [REL] Mockingbird Don't Sing (2001)

Postby starfish21 » Sun Jan 15, 2012 6:42 pm  0 likes

it's just one of many i'd never heard of,there will be more.
User avatar
For An Angel
Posts: 655
Likes:
Joined: Sat Jan 02, 2010 1:00 am

Re: [REL] Mockingbird Don't Sing (2001)

Postby For An Angel » Mon Jan 16, 2012 12:50 am  0 likes

If you're interested in the story of Genie, the NOVA documentary "Secrets of the Wild Child" is definitely worth watching.

Rich's link still has sources but the other one doesn't.
Last edited by For An Angel on Thu Jan 19, 2012 1:11 am, edited 1 time in total.
User avatar
starfish21
Posts: 3376
Likes:
Joined: Tue May 23, 2006 1:00 am

Re: [REL] Mockingbird Don't Sing (2001)

Postby starfish21 » Mon Jan 16, 2012 6:39 am  0 likes

For An Angel wrote:If you're interested in the story of Genie, the NOVA documentary "Secrets of the Wild Child" is definitely worth watching.

Rich's link still has sources but the other one doesn't.


hardware probs,will fix later.
katzenjammer
Posts: 621
Likes:
Joined: Mon Sep 01, 2008 1:00 am

Re: [REL] Mockingbird Don't Sing (2001)

Postby katzenjammer » Sat Jan 21, 2012 9:42 am  1 likes

Thanks for another one starfish
User avatar
ghost
Site Admin
Posts: 3487
Likes:
Joined: Sun Mar 07, 2004 1:00 am

Re: [REL] Mockingbird Don't Sing (2001)

Postby ghost » Tue Jun 21, 2016 5:31 pm  6 likes

I noticed that the old ed2k links are dead and the movie isn´t availabe in emule anymore :(

I made a new DVD Rip in good quality.

[Image]

Like this post to see ed2k links  [1.47 Gb]

Hope you enjoy 8-)
Last edited by ghost on Wed Oct 19, 2016 2:04 pm, edited 1 time in total.
User avatar
ARTHORIUS
Posts: 3709
Likes:
Joined: Sun Mar 26, 2006 1:00 am

Re: [REL] Mockingbird Don't Sing (2001)

Postby ARTHORIUS » Tue Jun 21, 2016 7:46 pm  0 likes

Thanks for the upgrade Ghost ;)
ONE RING TO BRING EM ALL

Return to “United States”

Who is online

Users browsing this forum: No registered users and 3 guests