[REL] Le Grand Champion / A Gift Horse (2015)

User avatar
Quickone
Posts: 653
Likes:
Joined: Sat Apr 29, 2006 1:00 am

[REL] Le Grand Champion / A Gift Horse (2015)

Postby Quickone » Tue Mar 15, 2016 2:26 pm  7 likes

[Image]

Imdb: http://www.imdb.com/title/tt3954294/combined

Plot: Torn apart by the loss of her mother, young Amanda spends time at a ranch owned by a business tycoon. When his spoiled daughter rejects their new horse, Amanda proves that Misty is a true champion and restores her own happiness in the process.

Info: :

Spoiler:

Source: DVD5

General
Complete name : A.Gift.Horse.2015.DVDRip.x264-MenaceIISociety.mp4
Format : MPEG-4
Format profile : Base Media
Codec ID : isom
File size : 931 MiB
Duration : 1h 19mn
Overall bit rate mode : Variable
Overall bit rate : 1 637 Kbps
Encoded date : UTC 2015-06-20 20:02:19
Tagged date : UTC 2015-06-20 20:02:19

Video
ID : 1
Format : AVC
Format/Info : Advanced Video Codec
Format profile : High@L4.1
Format settings, CABAC : Yes
Format settings, ReFrames : 3 frames
Codec ID : avc1
Codec ID/Info : Advanced Video Coding
Duration : 1h 19mn
Bit rate mode : Variable
Bit rate : 1 282 Kbps
Maximum bit rate : 40.0 Mbps
Width : 720 pixels
Height : 400 pixels
Display aspect ratio : 16:9
Frame rate mode : Constant
Frame rate : 25.000 fps
Color space : YUV
Chroma subsampling : 4:2:0
Bit depth : 8 bits
Scan type : Progressive
Bits/(Pixel*Frame) : 0.178
Stream size : 729 MiB (78%)
Writing library : x264 core 146 r2538 121396c

Audio
ID : 2
Format : AAC
Format/Info : Advanced Audio Codec
Format profile : LC
Codec ID : 40
Duration : 1h 19mn
Bit rate mode : Variable
Bit rate : 353 Kbps
Maximum bit rate : 406 Kbps
Channel count : 6 channels
Channel positions : Front: L C R, Side: L R, LFE
Sampling rate : 48.0 KHz
Compression mode : Lossy
Stream size : 199 MiB (21%)
Encoded date : UTC 2015-06-20 19:21:13
Tagged date : UTC 2015-06-20 20:07:01



Screens

[Image]

[Image]

Link:
Like this post to see ed2k links  [930.50 Mb]

Note: Remake of a movie already here.
Last edited by Quickone on Thu Mar 17, 2016 5:06 pm, edited 1 time in total.
User avatar
Phuzzy4242
Site Admin
Posts: 6539
Likes:
Joined: Sun Aug 23, 2009 1:00 am

Re: [REL] Le Grand Champion / A Gift Horse (2015)

Postby Phuzzy4242 » Tue Mar 15, 2016 8:08 pm  0 likes

:thumbsup
User avatar
mimzy
Posts: 972
Likes:
Joined: Fri Aug 12, 2011 7:00 am

Re: [REL] Le Grand Champion / A Gift Horse (2015)

Postby mimzy » Thu Mar 17, 2016 2:59 am  1 likes

Looks like a wrong link :roll:
User avatar
Quickone
Posts: 653
Likes:
Joined: Sat Apr 29, 2006 1:00 am

Re: [REL] Le Grand Champion / A Gift Horse (2015)

Postby Quickone » Thu Mar 17, 2016 5:08 pm  1 likes

mimzy wrote:Looks like a wrong link :roll:



Fixed sorry about that..
User avatar
Phuzzy4242
Site Admin
Posts: 6539
Likes:
Joined: Sun Aug 23, 2009 1:00 am

Re: [REL] Le Grand Champion / A Gift Horse (2015)

Postby Phuzzy4242 » Thu Mar 17, 2016 10:25 pm  0 likes

LOL is the other movie something you want to release?
User avatar
Quickone
Posts: 653
Likes:
Joined: Sat Apr 29, 2006 1:00 am

Re: [REL] Le Grand Champion / A Gift Horse (2015)

Postby Quickone » Thu Mar 17, 2016 10:28 pm  0 likes

No, I was grabbing it from here must have been in my clip board still

Return to “United States”

Who is online

Users browsing this forum: Google [Bot] and 4 guests