[REL] A Little Romance (1979)

Rich
Posts: 2824
Likes:
Joined: Sat Feb 21, 2004 1:00 am

[REL] A Little Romance (1979)

Postby Rich » Fri Feb 04, 2005 6:02 pm  18 likes

A Little Romance (1979)

[Image]

A French boy (Daniel) and an American girl (Lauren), who goes to school in Paris, meet and begin a little romance. They befriend Julius who enchants them with his story telling. In an attempt to solidify the teens' love forever, the three journey to Venice.


[Image]
[Image]
[Image]

Nothing too special, but I really liked the story/girl anyhow ;)

Released by javaopera at fileheaven :applause:

Like this post to see ed2k links  [699.47 Mb]

Like this post to see ed2k links  [9.38 Mb]

;)

http://www.imdb.com/title/tt0079477/
Ignition
Posts: 3
Likes:
Joined: Tue Jan 23, 2007 1:00 am

Re: [REL] A Little Romance (1979)

Postby Ignition » Tue Jan 23, 2007 6:16 pm  1 likes

This movie will charm the pants off you (so to speak) A great romantic, believable story. And hey Diane Lane's first flick, can't go wrong there!
User avatar
emuler
Posts: 4104
Likes:
Joined: Sun Apr 02, 2006 1:00 am

Re: [REL] A Little Romance (1979)

Postby emuler » Thu Jun 27, 2013 8:11 pm  1 likes

Wow! Rich's link is still alive after all these years. I'm a bit surprised no one has found a better version. Has this ever been released on BluRay?
User avatar
starfish21
Posts: 3376
Likes:
Joined: Tue May 23, 2006 1:00 am

Re: [REL] A Little Romance (1979)

Postby starfish21 » Fri Jun 28, 2013 7:09 pm  1 likes

not likely,i would think,not from 1979.
User avatar
loverboy
Posts: 1832
Likes:
Joined: Sun Sep 24, 2006 1:00 am

Re: [REL] A Little Romance (1979)

Postby loverboy » Sun Jun 30, 2013 12:17 am  0 likes

emuler wrote:Wow! Rich's link is still alive after all these years. I'm a bit surprised no one has found a better version. Has this ever been released on BluRay?


Give me 24 hours & I'll post an upgrade. It obviously won't be a blu-ray rip but it should be quite nice AND with English subs.

lb
User avatar
ptguardian
Posts: 4479
Likes:
Joined: Wed Sep 17, 2008 1:00 am

Re: [REL] A Little Romance (1979)

Postby ptguardian » Sun Jun 30, 2013 7:27 pm  1 likes

starfish21 wrote:not likely,i would think,not from 1979.

Age has little to do with it these days. You should know that from other releases here of recent. ;)
User avatar
starfish21
Posts: 3376
Likes:
Joined: Tue May 23, 2006 1:00 am

Re: [REL] A Little Romance (1979)

Postby starfish21 » Sun Jun 30, 2013 8:52 pm  1 likes

It's still unlikely though,not much chance of this turning up in the Criterion collection,if someone produces an hd copy of this,then it'll be great,but i reckon not. :D
User avatar
loverboy
Posts: 1832
Likes:
Joined: Sun Sep 24, 2006 1:00 am

Re: [REL] A Little Romance (1979)

Postby loverboy » Mon Jul 01, 2013 7:44 pm  14 likes

No HD or Blu-ray I'm afraid but a 2000 Kbps bitrate mp4 rip from the DVDR.

[Image][Image][Image][Image][Image][Image]
[Image][Image][Image][Image][Image][Image]
[Image][Image][Image][Image][Image][Image]
[Image][Image][Image][Image][Image][Image]

General
Complete name : A Little Romance 1979 isoRip loverboy.mp4
Format : MPEG-4
Format profile : Base Media / Version 2
Codec ID : mp42
File size : 1.66 GiB
Duration : 1h 50mn
Overall bit rate mode : Variable
Overall bit rate : 2 156 Kbps
Writing application : HandBrake 0.9.8 2012071700

Video
ID : 1
Format : AVC
Format/Info : Advanced Video Codec
Format profile : Main@L3.0
Format settings, CABAC : Yes
Format settings, ReFrames : 4 frames
Codec ID : avc1
Codec ID/Info : Advanced Video Coding
Duration : 1h 50mn
Bit rate mode : Variable
Bit rate : 2 000 Kbps
Width : 720 pixels
Height : 304 pixels
Display aspect ratio : 2.35:1
Frame rate mode : Variable
Frame rate : 23.976 fps
Minimum frame rate : 7.245 fps
Maximum frame rate : 29.970 fps
Color space : YUV
Chroma subsampling : 4:2:0
Bit depth : 8 bits
Scan type : Progressive
Bits/(Pixel*Frame) : 0.381
Stream size : 1.53 GiB (92%)
Writing library : x264 core 120

Audio
ID : 2
Format : AAC
Format/Info : Advanced Audio Codec
Format profile : LC
Codec ID : 40
Duration : 1h 50mn
Bit rate mode : Variable
Bit rate : 156 Kbps
Maximum bit rate : 197 Kbps
Channel(s) : 1 channel
Channel positions : Front: C
Sampling rate : 48.0 KHz
Compression mode : Lossy
Delay relative to video : 167ms
Stream size : 123 MiB (7%)
Language : English


Like this post to see ed2k links  [1.66 Gb]

English subtitles.
Like this post to see ed2k links  [86.8 Kb]

lb
User avatar
emuler
Posts: 4104
Likes:
Joined: Sun Apr 02, 2006 1:00 am

Re: [REL] A Little Romance (1979)

Postby emuler » Mon Jul 01, 2013 8:42 pm  0 likes

Thanks, lb. This one's a keeper. :inlove
saroyan
Posts: 307
Likes:
Joined: Sun Jun 29, 2014 3:53 pm

Re: [REL] A Little Romance (1979)

Postby saroyan » Wed Sep 28, 2016 3:29 am  8 likes


Return to “United States”

Who is online

Users browsing this forum: No registered users and 3 guests