[RREL] The Interrogation of Michael Crowe (2002)

User avatar
ghost
Site Admin
Posts: 3381
Likes:
Joined: Sun Mar 07, 2004 1:00 am

[RREL] The Interrogation of Michael Crowe (2002)

Postby ghost » Wed Jan 18, 2006 6:58 pm  4 likes

[Image]
[Image]

When 12-year-old Stephanie Crowe is brutally murdered at her home in her small home town, the authories foolishly jump to conclusions that her 14-year-old brother Michael must be responsible. They completely ignore strong evidence that suggests and ultimately proves another suspect is the one. They work hard to force Michael to falsely confess to what he did not do, in order to avoid tougher investigation.


http://imdb.com/title/tt0330452/

Like this post to see ed2k links  [690.64 Mb]
Guest

Re: [RREL] The Interrogation of Michael Crowe (2002)

Postby Guest » Thu Jan 19, 2006 2:21 am  0 likes

I saw the movie a couple of months or maybe a year ago on television. It was a good movie, and sometimes i just wanted to beat the crap out of the persons who we're questioning Michael. The mental abuse that kid went through was just too much. Thanks for the rip :clap:
terry666
Posts: 509
Likes:
Joined: Mon Jan 02, 2006 1:00 am

Re: [RREL] The Interrogation of Michael Crowe (2002)

Postby terry666 » Thu Nov 22, 2007 5:01 am  4 likes

Here's a confirmed French dub DVD rip:
Like this post to see ed2k links  [698.98 Mb]
User avatar
starfish21
Posts: 3376
Likes:
Joined: Tue May 23, 2006 1:00 am

Re: [RREL] The Interrogation of Michael Crowe (2002)

Postby starfish21 » Sun Jun 19, 2011 2:14 pm  7 likes

Complete name : The interrogation of Michael Crowe.avi

[Image]

[Image][Image]

[Image][Image][Image]

[Image][Image][Image]

[Image][Image][Image]




Format : AVI
Format/Info : Audio Video Interleave
File size : 1.37 GiB
Duration : 1h 32mn
Overall bit rate : 2 118 Kbps
Writing application : VirtualDubMod 1.5.4.1 (build 2178/release)
Writing library : VirtualDubMod build 2178/release

Video
ID : 0
Format : MPEG-4 Visual
Format profile : Advanced Simple@L5
Format settings, BVOP : 1
Format settings, QPel : No
Format settings, GMC : No warppoints
Format settings, Matrix : Custom
Codec ID : XVID
Codec ID/Hint : XviD
Duration : 1h 32mn
Bit rate : 1 919 Kbps
Width : 720 pixels
Height : 544 pixels
Display aspect ratio : 4:3
Frame rate : 25.000 fps
Color space : YUV
Chroma subsampling : 4:2:0
Bit depth : 8 bits
Scan type : Progressive
Compression mode : Lossy
Bits/(Pixel*Frame) : 0.196
Stream size : 1.24 GiB (91%)
Writing library : XviD 1.2.1 (UTC 2008-12-04)

Audio
ID : 1
Format : AC-3
Format/Info : Audio Coding 3
Mode extension : CM (complete main)
Codec ID : 2000
Duration : 1h 32mn
Bit rate mode : Constant
Bit rate : 192 Kbps
Channel(s) : 2 channels
Channel positions : Front: L R
Sampling rate : 48.0 KHz
Bit depth : 16 bits
Compression mode : Lossy
Stream size : 127 MiB (9%)
Alignment : Split accross interleaves
Interleave, duration : 96 ms (2.41 video frames)
Interleave, preload duration : 96 ms

Like this post to see ed2k links  [1.37 Gb]
User avatar
popdrome
Posts: 1527
Likes:
Joined: Sat Mar 25, 2006 1:00 am

Re: [RREL] The Interrogation of Michael Crowe (2002)

Postby popdrome » Sun Jun 19, 2011 4:09 pm  0 likes

Hey great! didnt have this 1 yet.. Thanks starfish!!! :bigups
User avatar
StarScoutSix
Posts: 1
Likes:
Joined: Sat Mar 10, 2012 11:21 pm

Re: [RREL] The Interrogation of Michael Crowe (2002)

Postby StarScoutSix » Sat Mar 10, 2012 11:36 pm  0 likes

Alternative links to The Interrogation of Michael Crowe (2002)
AVI from a DVD source. 92 minutes. 1.36 GB. Original English audio track, no subtitles.

Basic technical information about The Interrogation of Michael Crowe (2002)
---------------------------------------------------------------------------

File Name ..............: The Interrogation of Michael Crowe (2002)(DVDRip).avi
File Size (in bytes) ...: 1,468,428,288 bytes
Runtime ................: 1:32:27

Video Info
Video Codec ............: XviD ISO MPEG-4
Frame Size .............: 720x544 (AR: 1.324)
FPS ....................: 25.000
Video Bitrate ..........: 1919 kb/s

Audio Info
Audio Codec ............: 0x2000 (Dolby AC3) AC3
Sample Rate ............: 48000 Hz
Audio Bitrate ..........: 192 kb/s [2 channel(s)] CBR
No. of audio streams ...: 1

The complete set of file sharing links to The Interrogation of Michael Crowe (2002)
-----------------------------------------------------------------------------------
Last edited by Phuzzy4242 on Sun Mar 11, 2012 7:23 am, edited 1 time in total.
Reason: DD links removed because ed2k link has existed for several months.
User avatar
starfish21
Posts: 3376
Likes:
Joined: Tue May 23, 2006 1:00 am

Re: [RREL] The Interrogation of Michael Crowe (2002)

Postby starfish21 » Sun Mar 11, 2012 7:13 am  0 likes

welcome to FLM StarScoutSix, i'm quite sure i originally got the links for this movie from one of the 'Boyscout' sites,and it's probably the same version.direct download links are only allowed if there isn't an ed2k link already available,and when someone creates an emule link,the dd links are deleted. 8-)
User avatar
Phuzzy4242
Site Admin
Posts: 6538
Likes:
Joined: Sun Aug 23, 2009 1:00 am

Re: [RREL] The Interrogation of Michael Crowe (2002)

Postby Phuzzy4242 » Sun Mar 11, 2012 7:31 am  0 likes

Thanks for posting your links, StarScoutSix, and we appreciate your trying to contribute. FLM is an eMule-oriented site and this film was released in that format quite awhile ago, so I removed the DDL links in your post. Generally, DDL is OK until someone gets a complete download and posts it in ed2k format. We sometimes leave the DDL links for a short while when a film is just released for those who are impatient with ed2k, but they're usually removed before long. Please stick around and feel free to contribute - we're always happy to see a new face. :thumbsup
User avatar
Pardal2008
Posts: 324
Likes:
Joined: Wed Feb 22, 2012 10:23 pm

Re: [RREL] The Interrogation of Michael Crowe (2002)

Postby Pardal2008 » Sun Mar 11, 2012 3:40 pm  0 likes

The interrogation of Michael Crowe.avi

Thank you again for link, good work starfish21 ;)
Pardal
All the little girls are in love only to me

Return to “United States”

Who is online

Users browsing this forum: No registered users and 4 guests