[REL] Manny & Lo (1996)

User avatar
ghost
Site Admin
Posts: 6197
Likes:
Joined: Sun Mar 07, 2004 1:00 am

[REL] Manny & Lo (1996)

Post by ghost »   8 likes

[Image]
A pregnant teenage girl, Lo (Aleksa Palladino), keeps herself and her younger sister, Manny (Scarlett Johansson), roughly eleven, on the run so that this orphaned pair will not be separated and placed in homes with uncaring foster parents. When it becomes evident that Lo's motherhood is close, the girls hide out in an isolated cabin.

While preparing for their "retreat," a nurse working in a baby shop is encountered; impressed with her knowledge of infants, our young heroines opt to abduct her and force the woman to assist with the birth. Reluctant at first but eventually drawn to her new "family," the nurse is soon trying to help her friends in more ways than one. Trouble is, the always skeptical and paranoid Lo can't accept that an adult might indeed care for them. Can Manny bring this often conflicting pair together? A bit predictable, yes, but generally lots of fun with fine performances by the girls; recommended!
Like this post to see ed2k links  [700.42 Mb]

german: Like this post to see ed2k links  [880.43 Mb]

http://www.imdb.com/title/tt0116985/
User avatar
ARTHORIUS
Posts: 3712
Likes:
Joined: Sun Mar 26, 2006 1:00 am

Re: [RREL] Manny & Lo (1996)

Post by ARTHORIUS »   0 likes

PICS ARE COOL....BUT REMEMBER ME THAT THE CAMERA DON'T SHOW NOTHING PARTICULAR... :(
billanben
Posts: 1396
Likes:
Joined: Tue Feb 07, 2006 1:00 am

Re: [RREL] Manny & Lo (1996)

Post by billanben »   0 likes

Many and Lo is for those who appreciate a good (great) story, and was an early vehicle for the stunning (see her Cheerleader in American Beauty) Scarlett Johannsen.
User avatar
ghost
Site Admin
Posts: 6197
Likes:
Joined: Sun Mar 07, 2004 1:00 am

Re: [REL] Manny & Lo (1996)

Post by ghost »   19 likes

It's time to upgrade this thread with a pretty good quality version ;)

[Image]
[Image]

Like this post to see ed2k links  [1.28 Gb]
User avatar
ghost
Site Admin
Posts: 6197
Likes:
Joined: Sun Mar 07, 2004 1:00 am

Re: [REL] Manny & Lo (1996)

Post by ghost »   0 likes

I added a german audio track from the original old VHS tape. Maybe someone can need it.
Spoiler:

General
Complete name : Manny & Lo (1996).ger-eng.mkv
Format : Matroska
Format version : Version 4
File size : 1.28 GiB
Duration : 1 h 24 min
Overall bit rate : 2 184 kb/s
Encoded date : UTC 2019-02-07 10:30:25
Writing application : mkvmerge v30.1.0 ('Forever And More') 64-bit
Writing library : libebml v1.3.6 + libmatroska v1.4.9

Video
ID : 1
Format : AVC
Format/Info : Advanced Video Codec
Format profile : Main@L3.1
Format settings : CABAC / 4 Ref Frames
Format settings, CABAC : Yes
Format settings, ReFrames : 4 frames
Codec ID : V_MPEG4/ISO/AVC
Duration : 1 h 24 min
Bit rate : 1 798 kb/s
Width : 1 024 pixels
Height : 576 pixels
Display aspect ratio : 16:9
Frame rate mode : Constant
Frame rate : 25.000 FPS
Standard : PAL
Color space : YUV
Chroma subsampling : 4:2:0
Bit depth : 8 bits
Scan type : Progressive
Bits/(Pixel*Frame) : 0.122
Stream size : 1.06 GiB (82%)
Default : Yes
Forced : No
Color range : Limited
Color primaries : BT.601 PAL
Transfer characteristics : BT.470 System B/G
Matrix coefficients : BT.470 System B/G

Audio #1
ID : 2
Format : AAC LC
Format/Info : Advanced Audio Codec Low Complexity
Codec ID : A_AAC-2
Duration : 1 h 24 min
Bit rate : 192 kb/s
Channel(s) : 2 channels
Channel layout : L R
Sampling rate : 48.0 kHz
Frame rate : 46.875 FPS (1024 SPF)
Compression mode : Lossy
Stream size : 116 MiB (9%)
Language : German
Default : Yes
Forced : No

Audio #2
ID : 3
Format : AAC LC
Format/Info : Advanced Audio Codec Low Complexity
Codec ID : A_AAC-2
Duration : 1 h 24 min
Bit rate : 192 kb/s
Channel(s) : 2 channels
Channel layout : L R
Sampling rate : 48.0 kHz
Frame rate : 46.875 FPS (1024 SPF)
Compression mode : Lossy
Delay relative to video : 20 ms
Stream size : 116 MiB (9%)
Language : English
Default : No
Forced : No
User avatar
ghost
Site Admin
Posts: 6197
Likes:
Joined: Sun Mar 07, 2004 1:00 am

Re: [REL] Manny & Lo (1996)

Post by ghost »   34 likes

I loved this movie, now I found it in Full HD! :icon_1dancingban

[Image]

You can switch between English and German audio again.

Like this post to see ed2k links  [2.80 Gb]
User avatar
popdrome
Global Moderator
Posts: 2241
Likes:
Joined: Sat Mar 25, 2006 1:00 am

Re: [REL] Manny & Lo (1996)

Post by popdrome »   0 likes

thank you.. that's brilliant :heart

Don't go quietly into the night.
User avatar
pillowbaker
Posts: 316
Likes:
Joined: Mon Mar 07, 2022 4:05 am

Re: [REL] Manny & Lo (1996)

Post by pillowbaker »   0 likes

I think I've heard of this before. I checked this out because of of pistachio's top ten list. Looks like a cute/serious movie. Gonna put it in the watch queue!
User avatar
emuler
Posts: 4568
Likes:
Joined: Sun Apr 02, 2006 1:00 am

Re: [REL] Manny & Lo (1996)

Post by emuler »   0 likes

Scarlett Johannsen :inlove :inlove :inlove
Post Reply