[REL] Savannah Smiles (1982)

Rich
Posts: 2824
Likes:
Joined: Sat Feb 21, 2004 1:00 am

[REL] Savannah Smiles (1982)

Postby Rich » Sat Jul 07, 2007 1:28 am  3 likes

[REL] Savannah Smiles (1982)

[Image]

Thanks to snyder9@fileheaven .. check imdb 4 more...

Like this post to see ed2k links  [723.92 Mb]
FLL
Posts: 2191
Likes:
Joined: Mon Aug 28, 2006 1:00 am

Re: [REL] Savannah Smiles (1982)

Postby FLL » Sat Jul 07, 2007 2:30 am  0 likes

Heh, that exact file was posted by sodepetahi in viewtopic.php?t=1069&highlight=savannah but it wasn't the movie you were looking for at the time.
sodepetahi
Posts: 136
Likes:
Joined: Wed Feb 02, 2005 1:00 am

Re: [REL] Savannah Smiles (1982)

Postby sodepetahi » Sun Jul 08, 2007 2:30 pm  0 likes

I remember it well lol
User avatar
loverboy
Posts: 1832
Likes:
Joined: Sun Sep 24, 2006 1:00 am

Re: [REL] Savannah Smiles (1982)

Postby loverboy » Sun Dec 28, 2008 1:56 am  6 likes

If my memory serves me right the original was not of particularly good quality so hopefully this can be considered an upgrade. Apart from anything else there are no complete sources showing.

[Image][Image][Image][Image]
[Image][Image][Image][Image]
[Image][Image][Image][Image]

File Name .......: Savannah Smiles loverboy edit.avi
File Size .......: 688.73 MB

Duration ........: 01:44:26
Video Codec .....: DivX 5.0 codec
Video Bitrate ...: 794 KB/s
Resolution ......: 640 x 336
Aspect Ratio ....: 1.90:1
Framerate .......: 23.976 FPS

Audio Codec .....: MPEG-1 Layer 3 (MP3)
Audio Bitrate ...: 128 KB/s (CBR)
Channels ........: 2 Ch

There was a 1.85gb release posted at TLM 77days ago...........this good quality rip is of a more modest size.
Not mine.......I've simply edited it. Thanks to the originator.

Like this post to see ed2k links  [688.73 Mb]

Enjoy!
User avatar
emuler
Posts: 4104
Likes:
Joined: Sun Apr 02, 2006 1:00 am

Re: [REL] Savannah Smiles (1982)

Postby emuler » Sun Dec 28, 2008 2:11 am  0 likes

What a cutie. Still remember her from an episode of Remington Steele. :inlove
User avatar
ptguardian
Posts: 4479
Likes:
Joined: Wed Sep 17, 2008 1:00 am

Re: [REL] Savannah Smiles (1982)

Postby ptguardian » Fri Feb 24, 2012 8:17 pm  0 likes

GOTJ13 wrote:Any chance of resharing this (NOT reharing it, even though she is a cute bunny! ;-) )? she is just such a cutie... this is what I have on shortypower

Nothing found for ed2k::D5E6B6DA1......


TIA. :-)

shortypower means little. It only tells you when there is a full source that is connected to one of the servers on their list at the time you check. Someone who only uses kad will not show up. Someone who uses a server not on their list will not show up. Try downloading a file first before you go asking for a reshare please. You did this with Hugo even though it was being well shared. Also many of us are not on the mule 24/7. ;)

Thanks :)

By the way both these files are currently being shared.
User avatar
loverboy
Posts: 1832
Likes:
Joined: Sun Sep 24, 2006 1:00 am

Re: [REL] Savannah Smiles (1982)

Postby loverboy » Mon Mar 18, 2013 11:45 pm  6 likes

Upgrade.

[Image][Image][Image][Image][Image][Image]
[Image][Image][Image][Image][Image][Image]
[Image][Image][Image][Image][Image][Image]
[Image][Image][Image][Image][Image][Image]

General
Complete name : Savannah Smiles 1982 isoRip loverboy.mp4
Format : MPEG-4
Format profile : Base Media / Version 2
Codec ID : mp42
File size : 1.60 GiB
Duration : 1h 44mn
Overall bit rate mode : Variable
Overall bit rate : 2 193 Kbps
Encoded date : UTC 2013-03-10 09:02:50
Tagged date : UTC 2013-03-10 09:31:46
Writing application : HandBrake 0.9.8 2012071700

Video
ID : 1
Format : AVC
Format/Info : Advanced Video Codec
Format profile : Main@L3.0
Format settings, CABAC : Yes
Format settings, ReFrames : 4 frames
Codec ID : avc1
Codec ID/Info : Advanced Video Coding
Duration : 1h 44mn
Bit rate mode : Variable
Bit rate : 2 000 Kbps
Width : 720 pixels
Height : 384 pixels
Display aspect ratio : 1.85:1
Frame rate mode : Variable
Frame rate : 23.976 fps
Minimum frame rate : 19.965 fps
Maximum frame rate : 59.960 fps
Color space : YUV
Chroma subsampling : 4:2:0
Bit depth : 8 bits
Scan type : Progressive
Bits/(Pixel*Frame) : 0.302
Stream size : 1.48 GiB (92%)
Writing library : x264 core 120

Audio
ID : 2
Format : AAC
Format/Info : Advanced Audio Codec
Format profile : LC
Codec ID : 40
Duration : 1h 44mn
Bit rate mode : Variable
Bit rate : 160 Kbps
Maximum bit rate : 351 Kbps
Channel(s) : 2 channels
Channel positions : Front: L R
Sampling rate : 48.0 KHz
Compression mode : Lossy
Delay relative to video : 67ms
Stream size : 119 MiB (7%)
Language : English


I'm not able to stay connected to eMule 24/7 for the next few days, especially overnight UK time, but persevere!

Like this post to see ed2k links  [1.60 Gb]

lb
User avatar
emuler
Posts: 4104
Likes:
Joined: Sun Apr 02, 2006 1:00 am

Re: [REL] Savannah Smiles (1982)

Postby emuler » Tue Mar 19, 2013 2:48 am  0 likes

Thanks, lb. :D
User avatar
starfish21
Posts: 3376
Likes:
Joined: Tue May 23, 2006 1:00 am

Re: [REL] Savannah Smiles (1982)

Postby starfish21 » Tue Mar 19, 2013 6:40 am  0 likes

Your images arent displaying for me,LB,clicking just hangs on a white page. 8-)

Return to “United States”

Who is online

Users browsing this forum: No registered users and 2 guests