[REL] A Dog of Flanders (1999)

Rich
Posts: 2824
Likes:
Joined: Sat Feb 21, 2004 1:00 am

[REL] A Dog of Flanders (1999)

Postby Rich » Sat Apr 10, 2004 6:49 pm  1 likes

[Image]

A twelve year old boy (David Ladd) finds an abandoned and abused dog then takes it home and nurses it back to health. The animal pays the youngster back by helping him pull a milk cart into the city once his grandfather falls ill and can no longer work.

But its cruel ex-owner is nearby and eventually decides he wants the dog back. Can our little hero keep his new pet and pal out of the clutches of evil?

Actually, this is just a subplot to a more touching one about a child aspiring to be an artist yet too poor to pursue his dreams, especially once his grandfather dies and leaves him with nothing but debts. A thoroughly pleasant family film!


Most likely a Japanese animation, still it says 'A' Dog of Flanders and not 'The', so there is a chance.

Rich :)

<Dead link removed by admin>
User avatar
Phuzzy4242
Site Admin
Posts: 6538
Likes:
Joined: Sun Aug 23, 2009 1:00 am

Re: A Dog of Flanders (1999)

Postby Phuzzy4242 » Thu Dec 22, 2011 12:38 am  3 likes

A Dog of Flanders (1999) [USA]

http://www.rarefilmfinder.com/showfilm.php?id=4971
http://www.imdb.com/title/tt0160216/

IMDb wrote:Poor but happy, young Nello and his grandfather live alone, delivering milk as a livelihood, in the outskirts of Antwerp, a city in Flanders (the Flemish or Dutch-speaking part of modern-day Belgium). They discover a beaten dog (a Bouvier, a large sturdy dog native to Flanders) and adopt it and nurse it back to health, naming it Patrasche, the middle name of Nello's mother Mary, who died when Nello was very young. Nello's mother was a talented artist, and like his mother, he delights in drawing, and his friend Aloise is his model and greatest fan and supporter.


No sources for Rich's links. Looks like this one VERIFIED:

Like this post to see ed2k links  [698.87 Mb]
User avatar
ptguardian
Posts: 4479
Likes:
Joined: Wed Sep 17, 2008 1:00 am

Re: A Dog of Flanders (1999) [USA]

Postby ptguardian » Thu Dec 22, 2011 12:44 am  0 likes

Here is the movie streamed if someone wants to check if it is FLM material.

User avatar
starfish21
Posts: 3376
Likes:
Joined: Tue May 23, 2006 1:00 am

Re: A Dog of Flanders (1999) [USA]

Postby starfish21 » Thu Dec 22, 2011 10:29 pm  12 likes

General
Complete name : A Dog Of Flanders - 1999 .avi
Format : AVI
Format/Info : Audio Video Interleave
File size : 699 MiB
Duration : 1h 40mn
Overall bit rate : 969 Kbps
Writing application : VirtualDubMod 1.4.13
Writing library : VirtualDub build 14328/release

Video
ID : 0
Format : MPEG-4 Visual
Format settings, BVOP : 1
Format settings, QPel : No
Format settings, GMC : No warppoints
Format settings, Matrix : Default (H.263)
Muxing mode : Packed bitstream
Codec ID : DX50
Codec ID/Hint : DivX 5
Duration : 1h 40mn
Bit rate : 862 Kbps
Width : 528 pixels
Height : 384 pixels
Display aspect ratio : 1.375
Frame rate : 23.976 fps
Color space : YUV
Chroma subsampling : 4:2:0
Bit depth : 8 bits
Scan type : Progressive
Compression mode : Lossy
Bits/(Pixel*Frame) : 0.177
Stream size : 622 MiB (89%)
Writing library : DivX 5.1.1 (Maupiti) (UTC 2003-11-19)

Audio
ID : 1
Format : MPEG Audio
Format version : Version 1
Format profile : Layer 3
Mode : Joint stereo
Codec ID : 55
Codec ID/Hint : MP3
Duration : 1h 40mn
Bit rate mode : Variable
Bit rate : 96.0 Kbps
Channel(s) : 2 channels
Sampling rate : 32.0 KHz
Compression mode : Lossy
Stream size : 69.9 MiB (10%)
Alignment : Aligned on interleaves
Interleave, duration : 36 ms (0.86 video frame)
Interleave, preload duration : 154 ms

[Image] [Image] [Image]

[Image] [Image] [Image]

[Image] [Image] [Image]

[Image] [Image] [Image]

[Image] [Image] [Image]

[Image] [Image] [Image]

[Image]

Like this post to see ed2k links  [698.87 Mb]
Last edited by Guest on Fri Dec 23, 2011 12:12 am, edited 1 time in total.
User avatar
Phuzzy4242
Site Admin
Posts: 6538
Likes:
Joined: Sun Aug 23, 2009 1:00 am

Re: [REL] A Dog of Flanders (1999)

Postby Phuzzy4242 » Thu Dec 22, 2011 11:07 pm  0 likes

Your link is the same as the one I posted, starfish, and I can verify it. Thanks. Moved to release.
User avatar
starfish21
Posts: 3376
Likes:
Joined: Tue May 23, 2006 1:00 am

Re: [REL] A Dog of Flanders (1999)

Postby starfish21 » Thu Dec 22, 2011 11:15 pm  0 likes

i can see it's the same file,i got this from a torrent,i take it that means it's the same version that someone has put on torrent, so it's got the same hash?
8-)
User avatar
Phuzzy4242
Site Admin
Posts: 6538
Likes:
Joined: Sun Aug 23, 2009 1:00 am

Re: [REL] A Dog of Flanders (1999)

Postby Phuzzy4242 » Thu Dec 22, 2011 11:21 pm  0 likes

starfish21 wrote:i can see it's the same file,i got this from a torrent,i take it that means it's the same version that someone has put on torrent, so it's got the same hash?
8-)

Maybe different filename but exact same hash and filesize. No worries.

I know you've been told this before, but your screencaps look washed out. Here's a comparison:

Mine
[Image]

Yours
[Image]

I'm not complaining - having any screencaps is a plus! :)
User avatar
ptguardian
Posts: 4479
Likes:
Joined: Wed Sep 17, 2008 1:00 am

Re: [REL] A Dog of Flanders (1999)

Postby ptguardian » Thu Dec 22, 2011 11:25 pm  0 likes

Starfish's screencaps are always enlarged. I can't remember last time he posted unchanged? Unchanging the pic lets us see exactly what it will look like through a media player. ;)
I never say anything because he also includes all the file info and this too tells you what to expect.
User avatar
starfish21
Posts: 3376
Likes:
Joined: Tue May 23, 2006 1:00 am

Re: [REL] A Dog of Flanders (1999)

Postby starfish21 » Fri Dec 23, 2011 12:04 am  0 likes

its a filter on the resizing software i use,i sometimes need to brighten up the image,instead of editing each individual image which would take too much time,i resize,sharpen and brighten in batch mode,it's the default setting.
i've been known to post 30+ pics at one time ,imagine the time that would take. :o
i'll deal with it in future,
User avatar
starfish21
Posts: 3376
Likes:
Joined: Tue May 23, 2006 1:00 am

Re: [REL] A Dog of Flanders (1999)

Postby starfish21 » Fri Dec 23, 2011 12:13 am  0 likes

check it out now. 8-)

Return to “United States”

Who is online

Users browsing this forum: No registered users and 4 guests