[REL] Shadrach (1998)

Rich
Posts: 2824
Likes:
Joined: Sat Feb 21, 2004 1:00 am

[REL] Shadrach (1998)

Postby Rich » Sat Apr 10, 2004 10:56 pm  0 likes

Shadrach (1998)

[Image]

An elderly Black man returns to his home so that he might be buried next to his kin. Nearing senility and physically weak, he seeks the assistance of the family which once owned him as a slave. Trouble starts when the local sheriff butts in and demands a "proper" burial. Seen through the eyes of a ten year old boy (Scott Terra); narrated by Martin Sheen.


[url]ed2k://|file|shadrach1.avi|690298880|AC38B81687B9C34FC55B9C91FCFCC95A|/[/url]
[url]ed2k://|file|Shadrach2.avi|644630528|425A3B4179FD5513902655B9F722D1F7|/[/url]

Rich :)

http://www.imdb.com/title/tt0144604/
Rich
Posts: 2824
Likes:
Joined: Sat Feb 21, 2004 1:00 am

Re: [REL] Shadrach (1998)

Postby Rich » Fri Sep 17, 2004 3:58 pm  0 likes

No source, now a request.

[Image]

[Image]

;)
Rich
Posts: 2824
Likes:
Joined: Sat Feb 21, 2004 1:00 am

Re: [REL] Shadrach (1998)

Postby Rich » Tue Jan 11, 2005 6:43 pm  4 likes

User avatar
ghost
Site Admin
Posts: 3488
Likes:
Joined: Sun Mar 07, 2004 1:00 am

[RREL] Shadrach (1998)

Postby ghost » Wed Jan 18, 2006 7:39 pm  3 likes

[Image]

An elderly Black man returns to his home so that he might be buried next to his kin. Nearing senility and physically weak, he seeks the assistance of the family which once owned him as a slave. Trouble starts when the local sheriff butts in and demands a "proper" burial. Seen through the eyes of a ten year old boy (Scott Terra); narrated by Martin Sheen.


[Image]
[Image]

Like this post to see ed2k links  [658.32 Mb]
Like this post to see ed2k links  [614.77 Mb]
Like this post to see ed2k links  [881.85 Mb]
Like this post to see ed2k links  [785.02 Mb]
User avatar
idler
Posts: 1107
Likes:
Joined: Sat Apr 01, 2006 1:00 am

Re: [RREL] Shadrach (1998)

Postby idler » Mon Nov 22, 2010 12:10 am  4 likes

[Image]

Like this post to see ed2k links  [1.37 Gb]

Format : AVI
Format/Info : Audio Video Interleave
File size : 1.37 GiB
Duration : 1h 24mn
Overall bit rate : 2 327 Kbps
Writing application : VirtualDubMod 1.5.10.2 (build 2542/release)
Writing library : VirtualDubMod build 2542/release

Video
Format : MPEG-4 Visual
Format profile : Streaming Video@L1
Format settings, BVOP : Yes
Format settings, QPel : No
Format settings, GMC : No warppoints
Format settings, Matrix : Default
Codec ID : XVID
Codec ID/Hint : XviD
Duration : 1h 24mn
Bit rate : 2 056 Kbps
Width : 600 pixels
Height : 444 pixels
Display aspect ratio : 4/3
Frame rate : 25.000 fps
Resolution : 24 bits
Colorimetry : 4:2:0
Scan type : Progressive
Bits/(Pixel*Frame) : 0.309
Stream size : 1.21 GiB (88%)
Writing library : XviD 1.1.0 (UTC 2005-11-22)

Audio #1
Format : MPEG Audio
Format version : Version 1
Format profile : Layer 3
Codec ID : 55
Codec ID/Hint : MP3
Duration : 1h 24mn
Bit rate mode : Constant
Bit rate : 128 Kbps
Channel(s) : 2 channels
Sampling rate : 48.0 KHz
Resolution : 16 bits
Stream size : 77.3 MiB (6%)
Alignment : Aligned on interleaves
Interleave, duration : 40 ms (1.00 video frame)
Interleave, preload duration : 504 ms

Audio #2
Format : MPEG Audio
Format version : Version 1
Format profile : Layer 3
Codec ID : 55


:icon_givebeer
User avatar
Phuzzy4242
Site Admin
Posts: 6623
Likes:
Joined: Sun Aug 23, 2009 1:00 am

Re: [RREL] Shadrach (1998)

Postby Phuzzy4242 » Mon Nov 22, 2010 4:14 am  0 likes

Thanks, Idler. I passed this one up for a long time but it looks interesting.

Return to “United States”

Who is online

Users browsing this forum: No registered users and 4 guests