[REL] Uncle Jack (2010)

User avatar
Jacen
Posts: 278
Likes:
Joined: Fri Apr 14, 2006 1:00 am

[REL] Uncle Jack (2010)

Postby Jacen » Sat May 15, 2010 6:08 pm  1 likes

Remember Ink?
viewtopic.php?t=6249&highlight=ink
Here's a little short featuring Quinn Hunchar and Christopher Soren Kelly
made by the same director Jamin Winans.

Like this post to see ed2k links  [122.85 Mb]
or
http://www.youtube.com/watch?v=Vez7qSrZfpc

[Image]

[Image]

[Image]

I think she's becoming cuter and cuter! :heart

http://www.imdb.com/title/tt1723617/
User avatar
kev
Site Admin
Posts: 2983
Likes:
Joined: Tue Jan 17, 2006 1:00 am

Re: [REL] Uncle Jack (2010)

Postby kev » Sun May 16, 2010 2:31 am  0 likes

Very cool! Many thanks, Jacen.

Love it when members stumble across little jewels we haven't heard of before.

Cool!! Again, thanks for posting!! :thumbsup

kev.
User avatar
ptguardian
Posts: 4479
Likes:
Joined: Wed Sep 17, 2008 1:00 am

Re: [REL] Uncle Jack (2010)

Postby ptguardian » Sun May 16, 2010 8:25 am  0 likes

I love a good bedtime story. Thanks Jacen :cool

:)
User avatar
Phuzzy4242
Site Admin
Posts: 6704
Likes:
Joined: Sun Aug 23, 2009 1:00 am

Re: [REL] Uncle Jack (2010)

Postby Phuzzy4242 » Sun May 16, 2010 2:11 pm  0 likes

Excellent! Thanks, Jacen. :thumbsup
User avatar
miih
Posts: 57
Likes:
Joined: Mon May 31, 2010 1:00 am

Re: [REL] Uncle Jack (2010)

Postby miih » Sat Jun 05, 2010 6:25 pm  0 likes

looks to be so nice!
thank you, Jacen!
User avatar
kev
Site Admin
Posts: 2983
Likes:
Joined: Tue Jan 17, 2006 1:00 am

Re: [REL] Uncle Jack (2010)

Postby kev » Sat Jun 05, 2010 8:14 pm  0 likes

Is anyone else having trouble playing this file??

I've used VLC, Gom Player, KMPlayer and others, including WMP which told me:

Windows Media Player wrote:The selected file hasn an extension that is not recognized by Windows Media Player, but the Player may still be able to play it. Because the file extension is unknown but the Player, you should be sure that the file comes from a trustworthy source.


In most players the problem seems to come in with the video/audio sych: The video is in sketchy slow motion, while the audio comes in somewhat normal and ends before the video is finished playing..

This is a cool video and I'd like to be able to watch it normally. Any help out there? :pray

Anyone having the same problems?? :think

kev.
User avatar
starfish21
Posts: 3376
Likes:
Joined: Tue May 23, 2006 1:00 am

Re: [REL] Uncle Jack (2010)

Postby starfish21 » Sat Jun 05, 2010 11:31 pm  1 likes

User avatar
kev
Site Admin
Posts: 2983
Likes:
Joined: Tue Jan 17, 2006 1:00 am

Re: [REL] Uncle Jack (2010)

Postby kev » Sun Jun 06, 2010 5:50 am  1 likes



Thanks starfish21, I really appreciate a working link.

I'm still wondering if anyone else has experienced the same problem or if something just got messed up when I downloaded the file... :think

Thanks again for the new link.

kev.
User avatar
idler
Posts: 1107
Likes:
Joined: Sat Apr 01, 2006 1:00 am

Re: [REL] Uncle Jack (2010)

Postby idler » Sun Jun 06, 2010 11:01 am  0 likes

kev wrote:Is anyone else having trouble playing this file??

Runs fine for me with VLC 1.0.5 and K-Lite codec pack 6.0.4.
Contemplating that your WMP doesn't recognise .mp4 - files, I daresay you bought your OS right from the Science Museum. If your hardware matches your software you'll never make it, 'cause this clip is in HDTV standard and needs a pretty good graphics accelerating card...
Format : MPEG-4
Format profile : Base Media / Version 2
Codec ID : mp42
File size : 123 MiB
Duration : 5min 22s
Overall bit rate : 3 199 Kbps
Encoded date : UTC 2010-02-10 12:07:56
Tagged date : UTC 2010-02-10 12:07:56
gsst : 0
gstd : 322640
gssd : B4A7DD108MH1273593463707435
gshh : v8.cache1.c.youtube.com

Video
Format : AVC
Format/Info : Advanced Video Codec
Format profile : High@L4.0
Format settings, CABAC : Ja
Format settings, ReFrames : 3 frames
Codec ID : avc1
Codec ID/Info : Advanced Video Coding
Duration : 5min 22s
Bit rate mode : Variable
Bit rate : 3 074 Kbps
Maximum bit rate : 21,4 Mbps
Width : 1 920 Pixel
Height : 1 080 Pixel
Display aspect ratio : 16/9
Frame rate mode : Constant
Frame rate : 30,000 FPS
Resolution : 24 bits
Colorimetry : 4:2:0
Scan type : Progressive
Bits/(Pixel*Frame) : 0.049
Stream size : 118 MiB (96%)
Title : (C) 2007 Google Inc. v08.13.2007.
Encoded date : UTC 2010-02-10 12:07:56
Tagged date : UTC 2010-02-10 12:07:58

Audio
Format : AAC
Format/Info : Advanced Audio Codec
Format version : Version 4
Format profile : LC
Format settings, SBR : Nein
Codec ID : 40
Duration : 5min 22s
Bit rate mode : Variable
Bit rate : 123 Kbps
Maximum bit rate : 257 Kbps
Channel(s) : 2 Kanäle
Channel positions : L R
Sampling rate : 44,1 KHz
Resolution : 16 bits
Stream size : 4,72 MiB (4%)
Title : (C) 2007 Google Inc. v08.13.2007.
Encoded date : UTC 2010-02-10 12:07:56
Tagged date : UTC 2010-02-10 12:07:58
User avatar
kev
Site Admin
Posts: 2983
Likes:
Joined: Tue Jan 17, 2006 1:00 am

Re: [REL] Uncle Jack (2010)

Postby kev » Sun Jun 06, 2010 3:40 pm  0 likes

idler wrote:...Contemplating that your WMP doesn't recognise .mp4 - files, I daresay you bought your OS right from the Science Museum...


lol!!

I'm still on Windows XP, so I'm sure that shows my age.. :wall

Now that you mention it, I think most of my .mp4 files have problems playing correctly.. :think

I'll check and see if there's a driver or something that I can install that could help this problem.. A new PC or laptop is looming on the horizon, but until then I have to make the best out of what I have..

Thanks for the info, idler!

kev.

Return to “United States”

Who is online

Users browsing this forum: No registered users and 4 guests