[REL] Dear Lemon Lima (2009)

mithriandir
Posts: 68
Likes:
Joined: Mon Jul 23, 2007 1:00 am

[REL] Dear Lemon Lima (2009)

Postby mithriandir » Sun Nov 21, 2010 2:27 pm  2 likes

While rallying her fellow misfits to compete in their school's Snowstorm Survivor competition, an awkward Alaskan teen discovers her Yup'ik heritage

http://www.imdb.com/title/tt1242423/


it's a nice movie unfortunately only link i found is with a polsih language (english in background) but maybe somneone will find it usefull


Like this post to see ed2k links  [700.01 Mb]
BizarreLoveTriangle
Posts: 1627
Likes:
Joined: Sat Sep 19, 2009 1:00 am

Re: [REL] Dear Lemon Lima (2009)

Postby BizarreLoveTriangle » Wed Nov 24, 2010 11:00 pm  1 likes

I'd like to see a movie about lemons who love lime...

[Image]
Guest

Re: [REL] Dear Lemon Lima (2009)

Postby Guest » Sun Jun 19, 2011 2:15 pm  0 likes

BizarreLoveTriangle wrote:I'd like to see a movie about lemons who love lime...



Possible source...

[spoiler]http://www.best4you.sk/muj-mily-denicku-dear-lemon-lima-2009-t250526.html[/spoiler]
User avatar
starfish21
Posts: 3376
Likes:
Joined: Tue May 23, 2006 1:00 am

Re: [REL] Dear Lemon Lima (2009)

Postby starfish21 » Sun Jun 19, 2011 2:49 pm  0 likes

nice find Willow,unfortunately it's got foreign audio overdubbed,good quality picture too.
i tried quite a few links but they all appear to be the same file,all have 'cz' in filename.
higgs_boson
Posts: 19
Likes:
Joined: Sun Jun 12, 2011 1:00 am

Re: [REL] Dear Lemon Lima (2009)

Postby higgs_boson » Sun Jun 19, 2011 3:00 pm  0 likes

Forum title "Filmy - SK/CZ dabing" does not look promising to start with :(
User avatar
starfish21
Posts: 3376
Likes:
Joined: Tue May 23, 2006 1:00 am

Re: [REL] Dear Lemon Lima (2009)

Postby starfish21 » Tue Jun 21, 2011 6:14 pm  0 likes

screencaps only.

[Image][Image][Image][Image]

[Image][Image][Image][Image]

[Image][Image][Image][Image]

[Image][Image][Image][Image]

[Image][Image][Image][Image]

[Image][Image][Image][Image]

[Image][Image][Image]
User avatar
starfish21
Posts: 3376
Likes:
Joined: Tue May 23, 2006 1:00 am

Re: [REL] Dear Lemon Lima (2009)

Postby starfish21 » Fri Aug 19, 2011 5:56 pm  3 likes

english version.


Complete name dear.lemon.lima.2009.dvdrip.xvid-wide.avi
Format : AVI
Format/Info : Audio Video Interleave
File size : 700 MiB
Duration : 1h 27mn
Overall bit rate : 1 121 Kbps

Video
ID : 0
Format : MPEG-4 Visual
Format profile : Advanced Simple@L5
Format settings, BVOP : 1
Format settings, QPel : No
Format settings, GMC : No warppoints
Format settings, Matrix : Default (MPEG)
Codec ID : XVID
Codec ID/Hint : XviD
Duration : 1h 27mn
Bit rate : 936 Kbps
Width : 624 pixels
Height : 256 pixels
Display aspect ratio : 2.40:1
Frame rate : 23.976 fps
Color space : YUV
Chroma subsampling : 4:2:0
Bit depth : 8 bits
Scan type : Progressive
Compression mode : Lossy
Bits/(Pixel*Frame) : 0.244
Stream size : 585 MiB (84%)
Writing library : XviD 1.2.1 (UTC 2008-12-04)

Audio
ID : 1
Format : MPEG Audio
Format version : Version 1
Format profile : Layer 3
Mode : Joint stereo
Mode extension : MS Stereo
Codec ID : 55
Codec ID/Hint : MP3
Duration : 1h 27mn
Bit rate mode : Variable
Bit rate : 172 Kbps
Nominal bit rate : 192 Kbps
Channel(s) : 2 channels
Sampling rate : 48.0 KHz
Compression mode : Lossy
Stream size : 108 MiB (15%)
Alignment : Aligned on interleaves
Interleave, duration : 24 ms (0.58 video frame)
Interleave, preload duration : 49 ms
Title : DEAR_LEMON_LIMA T80 3_2ch 448Kbps DELAY 0ms
Writing library : LAME3.98r
Encoding settings : -m j -V 4 -q 2 -lowpass 18.6 --abr 192


Like this post to see ed2k links  [700.14 Mb]
User avatar
loverboy
Posts: 1832
Likes:
Joined: Sun Sep 24, 2006 1:00 am

Re: [REL] Dear Lemon Lima (2009)

Postby loverboy » Fri Aug 19, 2011 6:17 pm  0 likes

Well done sf & not just for the release.....

Previous Polish version flags up two complete sources with FLM tags :D

Obviously they've just been sent a message pointing them here!

lb

Return to “United States”

Who is online

Users browsing this forum: No registered users and 5 guests