[REL] Shadow on the Wall (1950)

User avatar
ARTHORIUS
Posts: 3712
Likes:
Joined: Sun Mar 26, 2006 1:00 am

[REL] Shadow on the Wall (1950)

Post by ARTHORIUS »   0 likes

FLL
Posts: 2191
Likes:
Joined: Mon Aug 28, 2006 1:00 am

Re: [REL] Shadow on the Wall (1950)

Post by FLL »   0 likes

http://www.imdb.com/title/tt0042952/
Angered that her sister Celia has stolen her fiance, Dell Faring kills her and allows Celia's husband David, knocked out in an argument with Celia, to take the blame and end up on death row. Later Dell, finding out that David's young daughter Susan was witness to the crime and is undergoing psychiatric treatment, plans to eliminate her before her memory returns.

http://laurasmiscmusings.blogspot.com/2 ... -1950.html
SHADOW ON THE WALL is an excellent psychological thriller, notable for fine performances and stylish cinematography by Ray June.

Susan (Gigi Perreau) has repressed the traumatic memory of seeing her stepmother (Kristine Miller) killed by her aunt (Ann Sothern). Consequently Susan's adored father David (Zachary Scott), who was unconscious at the time of his wife's death, is convicted of the murder based on circumstantial evidence. Child psychiatrist Dr. Caroline Canford (Nancy Davis, later known as Nancy Reagan) works against time to uncover Susan's memories before David is put to death for the murder.

Gigi Perreau is quite remarkable as young Susan, and Nancy Davis does an outstanding job as the patient, professional doctor who slowly realizes Susan's father may not be a murderer. Scott, who sometimes played oily types, such as the villain in THE SECRET OF CONVICT LAKE (1951), is rather heartbreaking here as the man who realizes his lovely wife's infidelity and later must deal with the pain of being separated -- probably forever -- from his beloved daughter.

...

One scene, with a sedated child left alone in a hammock in a hospital bathtub, is jarring simply because it would never happen in today's safety-conscious (not to mention litigious) world. In that particular case progress would seem to be a good thing!

Gigi Perreau was born in 1941 and appeared in her first film, MADAME CURIE, before she was two years old. Her second role was playing Gloria DeHaven as a toddler in TWO GIRLS AND A SAILOR (1944). Gigi was part of a family of child actors which included sisters Janine and Lauren Perreau and brother Gerald Perreau, who was also billed in some films as Peter Miles (THE RED PONY). The siblings sometimes acted together in varying combinations in films such as SONG OF LOVE (1947), ENCHANTMENT (1948), FAMILY HONEYMOON (1949), and WEEK-END WITH FATHER (1951). One of Gigi's best-known films was MY FOOLISH HEART (1949). Fans of THE BRADY BUNCH may remember her as Greg's teacher in a memorable episode which also featured L.A. Dodgers star Wes Parker.
FLL
Posts: 2191
Likes:
Joined: Mon Aug 28, 2006 1:00 am

Re: [REL] Shadow on the Wall (1950)

Post by FLL »   9 likes

Gigi Perreau has about 35% screentime and does a good job. The scene mentioned in RFF is pretty short.

Future US First Lady Nancy Reagan nee Davis played a major role as a psychologist trying help Gigi, which was interesting to me since I can't remember seeing any her work. :think

Not a bad film if you like film noir B-movies. :thumbsup

[Image][Image][Image][Image][Image]
[Image][Image][Image][Image][Image]

Like this post to see ed2k links  [744.87 Mb]

Moving to REL.
User avatar
ptguardian
Posts: 4479
Likes:
Joined: Wed Sep 17, 2008 1:00 am

Re: [REL] Shadow on the Wall (1950)

Post by ptguardian »   0 likes

Very nice :thumbsup

Thanks FLL. I did a good search for this and couldn't find it. A SATrip? I did find past listings of this being played on MGM channel. I have MGMhd now and will keep an eye out for future broadcasts.

I love these type of movies and great timing right after the Driftwood release. :cool
User avatar
kev
Site Admin
Posts: 3517
Likes:
Joined: Tue Jan 17, 2006 1:00 am

Re: [REL] Shadow on the Wall (1950)

Post by kev »   0 likes

I love these old b&w movies!

Many thanks, FLL!! 35% screentime of Gigi Perreau is worth the d/load time and space for this movie.. :) (IMO, of course.. ;) )

[Image]
Almost 'Natalie Wood-ish' :heart


[Image]
*sigh* ...Daddy, daughter time... :heart

Thanks again, FLL for bringing this here!

kev.
User avatar
popdrome
Global Moderator
Posts: 2241
Likes:
Joined: Sat Mar 25, 2006 1:00 am

Re: [REL] Shadow on the Wall (1950)

Post by popdrome »   0 likes

Very nice... agree with kev 100% THANKS :icon_1dancingban
User avatar
ARTHORIUS
Posts: 3712
Likes:
Joined: Sun Mar 26, 2006 1:00 am

Re: [REL] Shadow on the Wall (1950)

Post by ARTHORIUS »   0 likes

Thanks for find this :thumbsup
User avatar
Phuzzy4242
Site Admin
Posts: 7686
Likes:
Joined: Sun Aug 23, 2009 1:00 am

Re: [REL] Shadow on the Wall (1950)

Post by Phuzzy4242 »   13 likes

Upgrade to 720x480 with English & Spanish subs.
Spoiler:

General
Unique ID : 39051031957627544088533026641016972106 (0x1D60F486B7F2361DCA583E9EE302E34A)
Complete name : I:\Shadow On The Wall (1950) (Pat Jackson) (English Spanishsub Englishsub) Dvd-Rip x264-Ac3 By Dmmd.mkv
Format : Matroska
Format version : Version 4
File size : 1.10 GiB
Duration : 1 h 23 min
Overall bit rate : 1 882 kb/s
Movie name : 1950-Shadow.on.the.wall.DVDx264.Ac3[DMMD]
Encoded date : UTC 2018-03-05 22:14:53
Writing application : mkvmerge v21.0.0 ('Tardigrades Will Inherit The Earth') 64-bit
Writing library : libebml v1.3.5 + libmatroska v1.4.8
Attachments : 1.jpg / 2.jpg

Video
ID : 1
Format : AVC
Format/Info : Advanced Video Codec
Format profile : High@L4.1
Format settings : CABAC / 16 Ref Frames
Format settings, CABAC : Yes
Format settings, Reference frames : 16 frames
Codec ID : V_MPEG4/ISO/AVC
Duration : 1 h 23 min
Bit rate : 1 688 kb/s
Width : 720 pixels
Height : 480 pixels
Display aspect ratio : 4:3
Frame rate mode : Constant
Frame rate : 23.976 (24000/1001) FPS
Color space : YUV
Chroma subsampling : 4:2:0
Bit depth : 8 bits
Scan type : Progressive
Bits/(Pixel*Frame) : 0.204
Stream size : 1 010 MiB (90%)
Writing library : x264 core 152 r2851kMod ba24899
Encoding settings : cabac=1 / ref=16 / deblock=1:-3:-3 / analyse=0x3:0x133 / me=umh / subme=11 / psy=1 / fade_compensate=0.00 / psy_rd=1.00:0.00 / mixed_ref=1 / me_range=24 / chroma_me=0 / trellis=2 / 8x8dct=1 / cqm=0 / deadzone=21,11 / fast_pskip=0 / chroma_qp_offset=-2 / threads=6 / lookahead_threads=1 / sliced_threads=0 / nr=0 / decimate=0 / interlaced=0 / bluray_compat=0 / constrained_intra=0 / bframes=11 / b_pyramid=2 / b_adapt=2 / b_bias=0 / direct=3 / weightb=1 / open_gop=0 / weightp=2 / keyint=250 / keyint_min=23 / scenecut=40 / intra_refresh=0 / rc=crf / mbtree=0 / crf=19.5000 / qcomp=0.60 / qpmin=0 / qpmax=69 / qpstep=4 / ip_ratio=1.40 / pb_ratio=1.30 / aq=3:0.50
Language : English
Default : Yes
Forced : No

Audio
ID : 2
Format : AC-3
Format/Info : Audio Coding 3
Commercial name : Dolby Digital
Codec ID : A_AC3
Duration : 1 h 23 min
Bit rate mode : Constant
Bit rate : 192 kb/s
Channel(s) : 2 channels
Channel layout : L R
Sampling rate : 48.0 kHz
Frame rate : 31.250 FPS (1536 SPF)
Compression mode : Lossy
Stream size : 115 MiB (10%)
Language : English
Service kind : Complete Main
Default : Yes
Forced : No

Text #1
ID : 3
Format : UTF-8
Codec ID : S_TEXT/UTF8
Codec ID/Info : UTF-8 Plain Text
Duration : 1 h 21 min
Bit rate : 72 b/s
Count of elements : 940
Stream size : 43.0 KiB (0%)
Language : Spanish
Default : Yes
Forced : No

Text #2
ID : 4
Format : UTF-8
Codec ID : S_TEXT/UTF8
Codec ID/Info : UTF-8 Plain Text
Duration : 1 h 21 min
Bit rate : 77 b/s
Count of elements : 1198
Stream size : 46.4 KiB (0%)
Language : English
Default : No
Forced : No

Menu
00:00:00.000 : en:Chapter 1
00:08:52.000 : en:Chapter 2
00:15:54.000 : en:Chapter 3
00:24:33.000 : en:Chapter 4
00:32:11.000 : en:Chapter 5
00:40:30.500 : en:Chapter 6
00:48:16.000 : en:Chapter 7
00:56:21.500 : en:Chapter 8
01:04:35.500 : en:Chapter 9
01:11:26.000 : en:Chapter 10
01:19:35.000 : en:Chapter 11
Like this post to see ed2k links  [1.10 Gb]
User avatar
ghost
Site Admin
Posts: 6202
Likes:
Joined: Sun Mar 07, 2004 1:00 am

Re: [REL] Shadow on the Wall (1950)

Post by ghost »   0 likes

:thumbsup
User avatar
emuler
Posts: 4569
Likes:
Joined: Sun Apr 02, 2006 1:00 am

Re: [REL] Shadow on the Wall (1950)

Post by emuler »   1 likes

Thanks, Phuzz. Long overdue for an upgrade. :icon_idea2
Btw. someone uploaded this to me at a staggering 24 Mbps. Completed in about 7 minutes. :icon_1dancingban :onfire
Post Reply