[REL] Secrets in the Walls (2010)

User avatar
corsarace
Posts: 210
Likes:
Joined: Mon Dec 14, 2009 1:00 am

[REL] Secrets in the Walls (2010)

Post by corsarace »   0 likes

Guest

Re: [REL] Secrets in the Walls 2010

Post by Guest »   0 likes

Genre: Horror

Single mom Rachel Easton and her two daughters, Molly and Lizzie, move from their cramped Detroit apartment to the suburbs when Rachel gets an irresistible deal on her dream house. But with the night comes scratching from within the walls, distant cries, and a figure of a young woman in the shifting shadows of the basement, and Lizzie begins to behave strangely. As the haunting intensifies, Rachel and her friend Belle must uncover the horrifying secret of what happened in the house in order to save her family.

Code: Select all

link not needed anymore...
Size: 387.15 MB
User avatar
corsarace
Posts: 210
Likes:
Joined: Mon Dec 14, 2009 1:00 am

Re: [REL] Secrets in the Walls 2010

Post by corsarace »   0 likes

Thanks willow :thumbsup
User avatar
starfish21
Posts: 3376
Likes:
Joined: Tue May 23, 2006 1:00 am

Re: [REL] Secrets in the Walls 2010

Post by starfish21 »   3 likes

Secrets_In_The_Walls_TiCTaC.avi

Format : AVI
Format/Info : Audio Video Interleave
File size : 700 MiB
Duration : 1h 25mn
Overall bit rate : 1 145 Kbps
Writing application : VirtualDubMod 1.5.4.1 (build 2178/release)
Writing library : VirtualDubMod build 2178/release

Video
ID : 0
Format : MPEG-4 Visual
Format profile : Advanced Simple@L5
Format settings, BVOP : No
Format settings, QPel : No
Format settings, GMC : No warppoints
Format settings, Matrix : Custom
Codec ID : XVID
Codec ID/Hint : XviD
Duration : 1h 25mn
Bit rate : 1 010 Kbps
Width : 624 pixels
Height : 352 pixels
Display aspect ratio : 16:9
Frame rate : 23.976 fps
Color space : YUV
Chroma subsampling : 4:2:0
Bit depth : 8 bits
Scan type : Progressive
Compression mode : Lossy
Bits/(Pixel*Frame) : 0.192
Stream size : 617 MiB (88%)
Writing library : XviD 1.2.1 (UTC 2008-12-04)

Audio
ID : 1
Format : MPEG Audio
Format version : Version 1
Format profile : Layer 3
Mode : Joint stereo
Mode extension : MS Stereo
Codec ID : 55
Codec ID/Hint : MP3
Duration : 1h 25mn
Bit rate mode : Constant
Bit rate : 128 Kbps
Channel(s) : 2 channels
Sampling rate : 48.0 KHz
Compression mode : Lossy
Stream size : 78.2 MiB (11%)
Alignment : Aligned on interleaves
Interleave, duration : 83 ms (2.00 video frames)
Interleave, preload duration : 504 ms
Writing library : LAME3.98r
Encoding settings : -m j -V 4 -q 2 -lowpass 17 -b 128
annoying logo throughout movie


[Image][Image]

[Image][Image]

[Image][Image]

[Image][Image]

[Image][Image]




Like this post to see ed2k links  [700.02 Mb]
User avatar
For An Angel
Posts: 656
Likes:
Joined: Sat Jan 02, 2010 1:00 am

Re: [REL] Secrets in the Walls 2010

Post by For An Angel »   0 likes

Ah... I remember this one. It was so scary it put me to sleep :wall
I only watched it because I'm still a big fan of Kay Panabaker :blush
User avatar
kev
Site Admin
Posts: 3536
Likes:
Joined: Tue Jan 17, 2006 1:00 am

Re: [REL] Secrets in the Walls 2010

Post by kev »   0 likes

ForAnAngel wrote:Ah... I remember this one. It was so scary it put me to sleep :wall...
lol I've seen lots of those too..

Anyway, thanks all for getting this movie here. :thumbsup

kev.
User avatar
corsarace
Posts: 210
Likes:
Joined: Mon Dec 14, 2009 1:00 am

Re: [REL] Secrets in the Walls 2010

Post by corsarace »   0 likes

Thanks a lot starfish21 :thumbsup
Post Reply