[REL] Inspector Gadget (1999)

willow
Posts: 7
Likes:
Joined: Mon Dec 03, 2007 1:00 am

[REL] Inspector Gadget (1999)

Postby willow » Sat Aug 27, 2011 4:21 am  0 likes

[Image]

A security guard's dreams come true when he is selected to be transformed into a cybernetic police officer.

http://www.imdb.com/title/tt0141369/

Starring Matthew Broderick
Rupert Everett
Joely Fisher
Michelle Trachtenberg
Dabney Coleman

[Image][Image][Image]
Last edited by willow on Sat Aug 27, 2011 4:43 am, edited 1 time in total.
User avatar
yoko
Posts: 629
Likes:
Joined: Sat Aug 27, 2011 3:40 am

Re: [REQ] Inspector Gadget (1999)

Postby yoko » Sat Aug 27, 2011 4:33 am  1 likes

Looks cute, thanks for info ;)
User avatar
Phuzzy4242
Site Admin
Posts: 6541
Likes:
Joined: Sun Aug 23, 2009 1:00 am

Re: [REQ] Inspector Gadget (1999)

Postby Phuzzy4242 » Sat Aug 27, 2011 6:34 am  0 likes

The .VOB files appear to be available on eMule but I haven't downloaded them to check.
User avatar
starfish21
Posts: 3376
Likes:
Joined: Tue May 23, 2006 1:00 am

Re: [REQ] Inspector Gadget (1999)

Postby starfish21 » Sat Aug 27, 2011 8:59 pm  1 likes

inspector gadget

General
Complete name : inspector gadget.avi
Format : AVI
Format/Info : Audio Video Interleave
File size : 1.66 GiB
Duration : 1h 18mn
Overall bit rate : 3 032 Kbps
Writing application : VirtualDubMod 1.5.10.2 (build 2542/release)
Writing library : VirtualDubMod build 2542/release

Video
ID : 0
Format : MPEG-4 Visual
Format profile : Advanced Simple@L5
Format settings, BVOP : 1
Format settings, QPel : No
Format settings, GMC : No warppoints
Format settings, Matrix : Default (H.263)
Muxing mode : Packed bitstream
Codec ID : XVID
Codec ID/Hint : XviD
Duration : 1h 18mn
Bit rate : 2 767 Kbps
Width : 892 pixels
Height : 576 pixels
Display aspect ratio : 3:2
Frame rate : 29.970 fps
Color space : YUV
Chroma subsampling : 4:2:0
Bit depth : 8 bits
Scan type : Progressive
Compression mode : Lossy
Bits/(Pixel*Frame) : 0.180
Stream size : 1.52 GiB (91%)
Writing library : XviD 64

Audio
ID : 1
Format : AC-3
Format/Info : Audio Coding 3
Mode extension : CM (complete main)
Codec ID : 2000
Duration : 1h 18mn
Bit rate mode : Constant
Bit rate : 256 Kbps
Channel(s) : 6 channels
Channel positions : Front: L C R, Side: L R, LFE
Sampling rate : 48.0 KHz
Bit depth : 16 bits
Compression mode : Lossy
Stream size : 144 MiB (8%)
Alignment : Split accross interleaves
Interleave, duration : 64 ms (1.92 video frames)
Interleave, preload duration : 500 ms


[Image]

[Image]

[Image]

[Image]

[Image]

[Image]

[Image]


Like this post to see ed2k links  [1.66 Gb]
User avatar
yoko
Posts: 629
Likes:
Joined: Sat Aug 27, 2011 3:40 am

Re: [REQ] Inspector Gadget (1999)

Postby yoko » Sat Aug 27, 2011 9:54 pm  1 likes

[Image]
katzenjammer
Posts: 621
Likes:
Joined: Mon Sep 01, 2008 1:00 am

Re: [REQ] Inspector Gadget (1999)

Postby katzenjammer » Sat Aug 27, 2011 10:03 pm  0 likes

Thanks for this starfish
User avatar
ptguardian
Posts: 4479
Likes:
Joined: Wed Sep 17, 2008 1:00 am

Re: [REL] Inspector Gadget (1999)

Postby ptguardian » Wed Jun 24, 2015 7:30 pm  2 likes


Return to “United States”

Who is online

Users browsing this forum: No registered users and 5 guests