[REL] Irreconcilable Differences (1984)

User avatar
starfish21
Posts: 3376
Likes:
Joined: Tue May 23, 2006 1:00 am

[REL] Irreconcilable Differences (1984)

Post by starfish21 »   14 likes

http://www.imdb.com/title/tt0087482/


Complete name :Irreconcilable Differences (1984) DVDRip XviD.avi
Format : AVI
Format/Info : Audio Video Interleave
File size : 1.26 GiB
Duration : 1h 53mn
Overall bit rate : 1 590 Kbps
Writing application : VirtualDubMod 1.5.4.1 (build 2178/release)
Writing library : VirtualDubMod build 2178/release

Video
ID : 0
Format : MPEG-4 Visual
Format profile : Advanced Simple@L5
Format settings, BVOP : 1
Format settings, QPel : No
Format settings, GMC : No warppoints
Format settings, Matrix : Default (H.263)
Muxing mode : Packed bitstream
Codec ID : XVID
Codec ID/Hint : XviD
Duration : 1h 53mn
Bit rate : 1 135 Kbps
Width : 560 pixels
Height : 448 pixels
Display aspect ratio : 5:4
Frame rate : 23.976 fps
Color space : YUV
Chroma subsampling : 4:2:0
Bit depth : 8 bits
Scan type : Progressive
Compression mode : Lossy
Bits/(Pixel*Frame) : 0.189
Stream size : 922 MiB (71%)
Writing library : XviD 1.2.0.dev47 (UTC 2006-11-01)

Audio
ID : 1
Format : AC-3
Format/Info : Audio Coding 3
Mode extension : CM (complete main)
Codec ID : 2000
Duration : 1h 53mn
Bit rate mode : Constant
Bit rate : 448 Kbps
Channel(s) : 6 channels
Channel positions : Front: L C R, Side: L R, LFE
Sampling rate : 48.0 KHz
Bit depth : 16 bits
Compression mode : Lossy
Stream size : 364 MiB (28%)
Alignment : Split accross interleaves
Interleave, duration : 83 ms (2.00 video frames)
Interleave, preload duration : 500 ms
Language : English

[Image]

[Image]

[Image]

[Image]

[Image]

[Image]

[Image]

[Image]

[Image]

[Image]

[Image]

[Image]

[Image]

[Image]

[Image]

[Image]

[Image]

[Image]

Like this post to see ed2k links  [1.26 Gb]
User avatar
Phuzzy4242
Site Admin
Posts: 7686
Likes:
Joined: Sun Aug 23, 2009 1:00 am

Re: [REL]Irreconcilable Differences (1984)

Post by Phuzzy4242 »   0 likes

I can't believe this one was never posted before. This movie was made when Drew Barrymore was only 9 years old. I liked [REL] Firestarter (1984) which she did just before this film.
User avatar
mimzy
Posts: 1250
Likes:
Joined: Fri Aug 12, 2011 7:00 am

Re: [REL] Irreconcilable Differences (1984)

Post by mimzy »   1 likes

Wow did not know that Drew Barrymore was a cutie those days [Image]

Thanks for posting, and special thanks for thumbnailed screencaps :bigups
User avatar
kev
Site Admin
Posts: 3536
Likes:
Joined: Tue Jan 17, 2006 1:00 am

Re: [REL] Irreconcilable Differences (1984)

Post by kev »   0 likes

Another young performance from a very talented actress!!

I love Drew Barrymore's chubby cheeks..

Thanks, starfish.

kev.
User avatar
starfish21
Posts: 3376
Likes:
Joined: Tue May 23, 2006 1:00 am

Re: [REL] Irreconcilable Differences (1984)

Post by starfish21 »   0 likes

an interview,where she discusses her new movie(this)

http://www.youtube.com/watch?v=w9DhdTaw9qs
User avatar
ptguardian
Posts: 4479
Likes:
Joined: Wed Sep 17, 2008 1:00 am

Re: [REL] Irreconcilable Differences (1984)

Post by ptguardian »   0 likes

User avatar
starfish21
Posts: 3376
Likes:
Joined: Tue May 23, 2006 1:00 am

Re: [REL] Irreconcilable Differences (1984)

Post by starfish21 »   0 likes

i'll grab that thankyou very much,a bit big for here at 4.36gb,but i'll sort it out.

p.s. if you ever,ever so much as hint at me having an ugly avatar again.....................
User avatar
ptguardian
Posts: 4479
Likes:
Joined: Wed Sep 17, 2008 1:00 am

Re: [REL] Irreconcilable Differences (1984)

Post by ptguardian »   0 likes

starfish21 wrote: p.s. if you ever,ever so much as hint at me having an ugly avatar again.....................
I don't recall doing so? Perhaps you were thinking of yourself sending such hints....

If I think you have an ugly avatar I will tell you, no hints :|

BTW, there are also HDtv rips out for Firestarter
User avatar
starfish21
Posts: 3376
Likes:
Joined: Tue May 23, 2006 1:00 am

Re: [REL] Irreconcilable Differences (1984)

Post by starfish21 »   0 likes

Maybe i should remove the word 'again' :D

Lb released Firestarter here in 2007, https://www.first-loves.net/forums/v ... irestarter it didn't get much response,that's a shame,it's a must for Drew fans,i think i'll download it for future.
Thanks for the info. 8-)
User avatar
ptguardian
Posts: 4479
Likes:
Joined: Wed Sep 17, 2008 1:00 am

Re: [REL] Irreconcilable Differences (1984)

Post by ptguardian »   0 likes

Firestarter has been shown a lot on HDTV this past year so a good chance it will also come out on Blu-ray. It didn't get much of a response back in 2007 because it wasn't a movie show chasing child nudity. :roll:

It is these films that I grew up on and Drew was one of the first girls I ever liked. I still like her to this day.
Post Reply