[REL] We Bought a Zoo (2011)

User avatar
ptguardian
Posts: 4479
Likes:
Joined: Wed Sep 17, 2008 1:00 am

[REL] We Bought a Zoo (2011)

Post by ptguardian »   0 likes

We Bought a Zoo (2011)
http://www.imdb.com/title/tt1389137/

[Image]
Of interest to FLM
Maggie Elizabeth Jones and Elle Fanning

Theaters December 23rd, 2011
User avatar
For An Angel
Posts: 656
Likes:
Joined: Sat Jan 02, 2010 1:00 am

Re: We Bought a Zoo (2011)

Post by For An Angel »   0 likes

I've seen almost everything Elle's done so I'm definitely looking forward to this one. Didn't look like she has that much screen time by the trailer though. Oh well, I'm sure I'll still like it.

PS: Is that her in your new avatar? Where is that from?
User avatar
ptguardian
Posts: 4479
Likes:
Joined: Wed Sep 17, 2008 1:00 am

Re: We Bought a Zoo (2011)

Post by ptguardian »   0 likes

Yes it is Elle.

Here is the original. It is from teen vogue.

[Image]
User avatar
ptguardian
Posts: 4479
Likes:
Joined: Wed Sep 17, 2008 1:00 am

Re: We Bought a Zoo (2011)

Post by ptguardian »   0 likes

Several dvdrips out on torrent today. ;)

I am waiting for the blu-ray rip, should be very soon. Great movie and it does have some first love thrown in.

A few production stills for your enjoyment.


[Image][Image][Image][Image]
User avatar
starfish21
Posts: 3376
Likes:
Joined: Tue May 23, 2006 1:00 am

Re: We Bought a Zoo (2011)

Post by starfish21 »   13 likes

Thanks goes to Ptg for his vigilance. :D

Elle has very little screentime,but to be honest,she seems to be a girl of limited expression anyway,the little redhead (Maggie Elizabeth Jones) steals the show for me,a real cutie. :)

[Image]

[Image]

[Image]

[Image]

[Image]

[Image]

[Image]

[Image]

[Image]

[Image]

[Image]

[Image]

[Image]

[Image]

[Image]

[Image]

[Image]

[Image]

[Image]

[Image]

[Image]

[Image]

[Image]

[Image]

[Image]

[Image]

[Image]

[Image]

[Image]

[Image]

[Image] [Image] [Image]

[Image] [Image] [Image]

[Image] [Image] [Image]

[Image] [Image] [Image]

[Image] [Image] [Image]

[Image] [Image] [Image]

[Image] [Image] [Image]

[Image] [Image] [Image]

[Image] [Image] [Image]

[Image] [Image] [Image]

Like this post to see ed2k links  [1.35 Gb]

General
Complete name : We Bought a Zoo (2011)dvdrip.avi
Format : AVI
Format/Info : Audio Video Interleave
Format profile : OpenDML
File size : 1.35 GiB
Duration : 2h 3mn
Overall bit rate : 1 562 Kbps
Writing library : MPlayer

Video
ID : 0
Format : MPEG-4 Visual
Format profile : Advanced Simple@L5
Format settings, BVOP : 2
Format settings, QPel : No
Format settings, GMC : No warppoints
Format settings, Matrix : Default (MPEG)
Codec ID : XVID
Codec ID/Hint : XviD
Duration : 2h 3mn
Bit rate : 1 108 Kbps
Width : 624 pixels
Height : 336 pixels
Display aspect ratio : 1.857
Frame rate : 23.976 fps
Color space : YUV
Chroma subsampling : 4:2:0
Bit depth : 8 bits
Scan type : Progressive
Compression mode : Lossy
Bits/(Pixel*Frame) : 0.220
Stream size : 982 MiB (71%)
Writing library : XviD 1.2.1 (UTC 2008-12-04)

Audio
ID : 1
Format : AC-3
Format/Info : Audio Coding 3
Mode extension : CM (complete main)
Codec ID : 2000
Duration : 2h 3mn
Bit rate mode : Constant
Bit rate : 448 Kbps
Channel(s) : 6 channels
Channel positions : Front: L C R, Side: L R, LFE
Sampling rate : 48.0 KHz
Bit depth : 16 bits
Compression mode : Lossy
Stream size : 397 MiB (29%)
Alignment : Split accross interleaves
Interleave, duration : 500 ms (11.99 video frames)
Interleave, preload duration : 500 ms
User avatar
ptguardian
Posts: 4479
Likes:
Joined: Wed Sep 17, 2008 1:00 am

Re: We Bought a Zoo (2011)

Post by ptguardian »   0 likes

Little Maggie is wonderful in this. [Image] :heart

It is a well made movie and lots of fun. Highly recommend seeing it.

Thanks for releasing it starfish. :D
User avatar
Phuzzy4242
Site Admin
Posts: 7686
Likes:
Joined: Sun Aug 23, 2009 1:00 am

Re: [REL] We Bought a Zoo (2011)

Post by Phuzzy4242 »   0 likes

Zoinks! Thanks starfish!
User avatar
ptguardian
Posts: 4479
Likes:
Joined: Wed Sep 17, 2008 1:00 am

Re: [REL] We Bought a Zoo (2011)

Post by ptguardian »   0 likes

Full retail dvd's hit torrent earlier today and finally a blu-ray rip. ;)

:cool
YIFY
Last edited by ptguardian on Sun Mar 18, 2012 11:56 pm, edited 1 time in total.
User avatar
Pardal2008
Posts: 341
Likes:
Joined: Wed Feb 22, 2012 10:23 pm

Re: [REL] We Bought a Zoo (2011)

Post by Pardal2008 »   0 likes

Thanks ptg and starfish,
it looks good ;)
Started downloading
Pardal
All the little girls are in love only to me
Post Reply