[REL] Finding Kelly (2000) aka Mystery Kids

User avatar
starfish21
Posts: 3376
Likes:
Joined: Tue May 23, 2006 1:00 am

[REL] Finding Kelly (2000) aka Mystery Kids

Postby starfish21 » Sun Jan 22, 2012 2:26 pm  13 likes

Finding Kelly (2000) aka Mystery Kids

http://www.imdb.com/title/tt0166192/

General
Unique ID : 242653120824137630351279252669997299108 (0xB68D4A88C4BE002AFB95CABD2EA0B5A4)
Complete name : Finding Kelly (2000) aka Mystery Kids
Format : Matroska
File size : 1.50 GiB
Duration : 1h 24mn
Overall bit rate : 2 544 Kbps
Writing application : HandBrake 0.9.4

Video
ID : 1
Format : AVC
Format/Info : Advanced Video Codec
Format profile : High@L3.1
Format settings, CABAC : Yes
Format settings, ReFrames : 3 frames
Codec ID : V_MPEG4/ISO/AVC
Duration : 1h 24mn
Bit rate : 2 091 Kbps
Width : 720 pixels
Height : 592 pixels
Display aspect ratio : 1.297
Frame rate : 25.000 fps
Color space : YUV
Chroma subsampling : 4:2:0
Bit depth : 8 bits
Scan type : Progressive
Bits/(Pixel*Frame) : 0.196
Stream size : 1.21 GiB (80%)
Writing library : x264 core 79
Encoding settings : cabac=1 / ref=3 / deblock=1:0:0 / analyse=0x3:0x113 / me=hex / subme=7 / psy=1 / psy_rd=1.0:0.0 / mixed_ref=1 / me_range=16 / chroma_me=1 / trellis=1 / 8x8dct=1 / cqm=0 / deadzone=21,11 / chroma_qp_offset=-2 / threads=3 / nr=0 / decimate=1 / mbaff=0 / constrained_intra=0 / bframes=3 / b_pyramid=0 / b_adapt=2 / b_bias=0 / direct=1 / wpredb=1 / wpredp=2 / keyint=250 / keyint_min=25 / scenecut=40 / rc_lookahead=50 / rc=2pass / mbtree=1 / bitrate=2091 / ratetol=1.0 / qcomp=0.60 / qpmin=10 / qpmax=51 / qpstep=4 / cplxblur=20.0 / qblur=0.5 / ip_ratio=1.40 / aq=1:1.00
Language : English
Color primaries : BT.601-6 525, BT.1358 525, BT.1700 NTSC, SMPTE 170M
Transfer characteristics : BT.709-5, BT.1361
Matrix coefficients : BT.601-6 525, BT.1358 525, BT.1700 NTSC, SMPTE 170M

Audio
ID : 2
Format : AC-3
Format/Info : Audio Coding 3
Mode extension : CM (complete main)
Codec ID : A_AC3
Duration : 1h 24mn
Bit rate mode : Constant
Bit rate : 448 Kbps
Channel(s) : 2 channels
Channel positions : Front: L R
Sampling rate : 48.0 KHz
Bit depth : 16 bits
Compression mode : Lossy
Stream size : 271 MiB (18%)
Language : English

There is a seldom talked about subgenre of films that I like to call "kiddie filler", namely those movies which pay channels like Cinemax, HBO, and Showtime "showcase" at times like Saturday morning at 7:00 A.M. for unsuspecting children who find themselves bored out of their skulls. The one thing these movies, many of which manage to work the word "KID" into the title somewhere ("Star KID", "Excalibur KID" and so on) have in common is that they all generally ... well, reek. Yes, more often than not they are pitifully inept.
So when I stumbled across this one on one of the Showtime channels in the unlikely 8:00 P.M. time slot, I was astonished to see how well made it was. This is a very good little movie; fresh, lively, and imaginative with excellent, unspoiled performances by the two child actors Brighton Hertford and Jameson Baltes.
The surprisingly intricate, nimble plot is about a couple of kids who play amateur detectives one summer in the hopes of collecting a $5,000 reward offered to anyone able to find a missing 17 year old girl. The girl and boy are best friends who have a great, unforced camaraderie with each other. None of the tiresome sniping and bickering that goes on in so many other films of this ilk. And they are given some wonderfully smart, observant dialogue, tons of it. In fact, the film is overflowing with it, much of it tricky and the two actors handle it all like a couple of seasoned pros.
I don't know how much of an audience these types of films get, but you hate to see something this good go overlooked. There's just an appealing off-hand quality to it - it makes you remember what it was like to be a kid.
by: unknown

[Image] [Image] [Image]

[Image] [Image] [Image]

[Image] [Image] [Image]

[Image] [Image] [Image]

[Image]



Like this post to see ed2k links  [1.50 Gb]
User avatar
ptguardian
Posts: 4479
Likes:
Joined: Wed Sep 17, 2008 1:00 am

Re: [REL]Finding Kelly (2000) aka Mystery Kids

Postby ptguardian » Sun Jan 22, 2012 10:07 pm  0 likes

I have caught this a couple of times on the HUB channel. Unfortunately I don't have a way of recording it. :(

Thanks for bringing it here. :thumbsup

Return to “United States”

Who is online

Users browsing this forum: No registered users and 2 guests