[REL] Arcadia (2012)

plonkah
Posts: 371
Likes:
Joined: Fri Jun 27, 2008 1:00 am

[REL] Arcadia (2012)

Postby plonkah » Mon Mar 26, 2012 8:32 pm  0 likes

Not much info but looks plentry screen time

Greta's dad Tom is moving the family cross-country in a dented station wagon, promising a California paradise to his kids. All that's missing is Mom
#
http://www.imdb.com/title/tt2056520/

Stars

http://www.imdb.com/name/nm1364532/

EMule just bseems spammed with pron for this !!
User avatar
ptguardian
Posts: 4479
Likes:
Joined: Wed Sep 17, 2008 1:00 am

Re: [REQ] Arcadia 2012

Postby ptguardian » Mon Mar 26, 2012 11:36 pm  1 likes

A great cast, I look forward to it. Thanks for introducing, :D

[Image]

[Image][Image]
User avatar
ptguardian
Posts: 4479
Likes:
Joined: Wed Sep 17, 2008 1:00 am

Re: [REQ] Arcadia 2012

Postby ptguardian » Thu Aug 02, 2012 7:22 am  1 likes

User avatar
ptguardian
Posts: 4479
Likes:
Joined: Wed Sep 17, 2008 1:00 am

Re: [REQ] Arcadia 2012

Postby ptguardian » Wed Jul 24, 2013 7:32 am  1 likes

User avatar
emuler
Posts: 4104
Likes:
Joined: Sun Apr 02, 2006 1:00 am

Re: [REQ] Arcadia 2012

Postby emuler » Wed Jul 24, 2013 4:27 pm  1 likes

Thanks, plonkah and PTg. :D Great teamwork.
User avatar
For An Angel
Posts: 655
Likes:
Joined: Sat Jan 02, 2010 1:00 am

Re: [REQ] Arcadia 2012

Postby For An Angel » Thu Jul 25, 2013 10:59 pm  17 likes

[Image]

Like this post to see ed2k links  [2.74 Gb]

Spoiler:

General
Unique ID : 202127955521902639288474214530798250011 (0x98106D9F6A6A8ECE979149499F6EE81B)
Complete name : C:\Users\For An Angel\Downloads\Arcadia.2012.720p.WEB-DL.H264-HD4FUN [PublicHD]\Arcadia.2012.720p.WEB-DL.DD5.1.H.264-HD4FUN.mkv
Format : Matroska
Format version : Version 4 / Version 2
File size : 2.74 GiB
Duration : 1h 30mn
Overall bit rate : 4 316 Kbps
Movie name : ripped by HD4FUN.COM
Encoded date : UTC 2013-07-23 07:01:05
Writing application : mkvmerge v6.0.0 ('Coming Up For Air') built on Jan 20 2013 09:52:00
Writing library : libebml v1.3.0 + libmatroska v1.4.0

Video
ID : 1
Format : AVC
Format/Info : Advanced Video Codec
Format profile : Main@L3.1
Format settings, CABAC : No
Format settings, ReFrames : 2 frames
Codec ID : V_MPEG4/ISO/AVC
Duration : 1h 30mn
Bit rate : 3 846 Kbps
Width : 1 280 pixels
Height : 536 pixels
Display aspect ratio : 2.40:1
Frame rate : 23.976 fps
Color space : YUV
Chroma subsampling : 4:2:0
Bit depth : 8 bits
Scan type : Progressive
Bits/(Pixel*Frame) : 0.234
Stream size : 2.44 GiB (89%)
Title : ripped by HD4FUN.COM
Language : English
Default : Yes
Forced : No
Color primaries : BT.709-5, BT.1361, IEC 61966-2-4, SMPTE RP177
Transfer characteristics : BT.709-5, BT.1361
Matrix coefficients : BT.709-5, BT.1361, IEC 61966-2-4 709, SMPTE RP177

Audio
ID : 2
Format : AC-3
Format/Info : Audio Coding 3
Mode extension : CM (complete main)
Format settings, Endianness : Big
Codec ID : A_AC3
Duration : 1h 30mn
Bit rate mode : Constant
Bit rate : 384 Kbps
Channel(s) : 6 channels
Channel positions : Front: L C R, Side: L R, LFE
Sampling rate : 48.0 KHz
Bit depth : 16 bits
Compression mode : Lossy
Stream size : 250 MiB (9%)
Language : English
Default : Yes
Forced : No

Text
ID : 3
Format : UTF-8
Codec ID : S_TEXT/UTF8
Codec ID/Info : UTF-8 Plain Text
Language : English
Default : No
Forced : No

Menu
00:00:00.000 : en:Shangri-la
00:08:25.000 : en:Dear Mom
00:15:26.000 : en:Road Rage
00:23:16.000 : en:Dog Attack
00:32:18.000 : en:Honky Tonkin鈥
00:39:45.000 : en:Complete Dorkus
00:47:59.000 : en:Evacuate
00:54:57.000 : en:Kidnapped
01:04:41.000 : en:Abandoned
01:10:53.000 : en:New Home
01:20:10.000 : en:Just a Rock
01:27:19.000 : en:Credits

User avatar
Phuzzy4242
Site Admin
Posts: 6626
Likes:
Joined: Sun Aug 23, 2009 1:00 am

Re: [REQ] Arcadia 2012

Postby Phuzzy4242 » Fri Jul 26, 2013 12:07 am  0 likes

Man, my upload/download ratio is never gonna recover. :D

Thanks, FAA.
User avatar
ptguardian
Posts: 4479
Likes:
Joined: Wed Sep 17, 2008 1:00 am

Re: [REL] Arcadia (2012)

Postby ptguardian » Fri Jul 26, 2013 7:09 am  2 likes

i watched this earlier today. Great little coming of age film starring the girl from SherryBaby. Cool to see these young ones grow up and keep getting better with each film. :cool

:D
User avatar
emuler
Posts: 4104
Likes:
Joined: Sun Apr 02, 2006 1:00 am

Re: [REL] Arcadia (2012)

Postby emuler » Wed Aug 21, 2013 6:27 pm  1 likes

I need some help with this one. Some 45 MB left to download. :D
User avatar
Phuzzy4242
Site Admin
Posts: 6626
Likes:
Joined: Sun Aug 23, 2009 1:00 am

Re: [REL] Arcadia (2012)

Postby Phuzzy4242 » Wed Aug 21, 2013 10:44 pm  0 likes

Reshared.

Return to “United States”

Who is online

Users browsing this forum: No registered users and 1 guest