[REL] A Taste of Romance (2012)

User avatar
For An Angel
Posts: 656
Likes:
Joined: Sat Jan 02, 2010 1:00 am

[REL] A Taste of Romance (2012)

Post by For An Angel »   15 likes

http://www.imdb.com/title/tt1849868/
http://francinebrokaw.suite101.com/a-ta ... el-a400013

If you're a fan of Bailee Madison like me then you will like this one. She has plenty of screentime (plus a bonus for me was seeing Amandla Stenberg before she was in The Hunger Games :blush ) but it is a Hallmark movie, just so you know what to look forward to. I've already uploaded the file to eMule so you won't have to wait for me to go online but I will still help share of course.

[Image][Image][Image][Image][Image][Image]

[Image][Image][Image][Image][Image][Image]



Like this post to see ed2k links  [700.16 Mb]
Spoiler:

General
Complete name : C:\Program Files\eMule\Incoming\A Taste of Romance (2012) TVRip.XviD-NuP.avi
Format : AVI
Format/Info : Audio Video Interleave
File size : 700 MiB
Duration : 1h 23mn
Overall bit rate : 1 166 Kbps

Video
ID : 0
Format : MPEG-4 Visual
Format profile : Advanced Simple@L5
Format settings, BVOP : 2
Format settings, QPel : No
Format settings, GMC : No warppoints
Format settings, Matrix : Default (H.263)
Codec ID : XVID
Codec ID/Hint : XviD
Duration : 1h 23mn
Bit rate : 1 024 Kbps
Width : 624 pixels
Height : 352 pixels
Display aspect ratio : 16:9
Frame rate : 29.970 fps
Color space : YUV
Chroma subsampling : 4:2:0
Bit depth : 8 bits
Scan type : Progressive
Compression mode : Lossy
Bits/(Pixel*Frame) : 0.156
Stream size : 615 MiB (88%)
Writing library : XviD 1.2.1 (UTC 2008-12-04)

Audio
ID : 1
Format : MPEG Audio
Format version : Version 1
Format profile : Layer 3
Codec ID : 55
Codec ID/Hint : MP3
Duration : 1h 23mn
Source duration : 1h 23mn
Bit rate mode : Constant
Bit rate : 128 Kbps
Channel(s) : 2 channels
Sampling rate : 48.0 KHz
Compression mode : Lossy
Stream size : 76.8 MiB (11%)
Alignment : Split accross interleaves
Interleave, duration : 24 ms (0.72 video frame)
User avatar
ptguardian
Posts: 4479
Likes:
Joined: Wed Sep 17, 2008 1:00 am

Re: [REL] A Taste of Romance (2012)

Post by ptguardian »   0 likes

Bailee is great. I got this off torrent and like it a lot. Thanks FAA :thumbsup

She has a new movie coming out later this month that she stars in. Cowgirls n' Angels. I just watched the trailer and it looks good. Another Bailee Madison movie that will eventually make it's way here. :D
User avatar
kev
Site Admin
Posts: 3536
Likes:
Joined: Tue Jan 17, 2006 1:00 am

Re: [REL] A Taste of Romance (2012)

Post by kev »   0 likes

Very coolio, FAA!!

When I first saw this post I was reminded of the German/Italian film Mostly Martha, about an 8 yo girl that goes to visit her aunt who is a somewhat famous chef.. But then that movie DID have an American remake called No Reservations [starring Abigail Breslin]. (If you follow the links, both of them available here at FLM... :D )

Looking forward to this one. Thanks for posting, FAA.

kev.
Post Reply