[REL] A Holiday To Remember (1995) TV Movie

User avatar
loverboy
Posts: 1832
Likes:
Joined: Sun Sep 24, 2006 1:00 am

[REL] A Holiday To Remember (1995) TV Movie

Postby loverboy » Wed Dec 05, 2012 11:28 pm  10 likes

You know what December means..... :think

http://uk.imdb.com/title/tt0164648/

[Image][Image]

Carolyn (Connie Selleca) has just gone through an extremely painful divorce. A therapist who has been residing in Los Angeles, with her pre-teen daughter Jordy, Carolyn is anxious to move on. Therefore, she tells her only child that they will be leaving SoCal and moving back to Mayville, North Carolina, her hometown. Jordy is less than thrilled. When the two females arrive, their house, once Carolyn's grandma's abode, is in need of many repairs. Not only that, Carolyn soon runs into a former flame, Clay (Randy Travis) whom she left at the alter years ago. He's still mad as a hornet. But, his loving aunt (Rue McClanahan) is delighted to see Carolyn and meet Jordy. One night, hearing noises, Carolyn discovers that a young, homeless boy is living in her basement! He won't tell anyone where he is from or who his parents are. Soon, Carolyn is befriending the little lad, much to the chagrin of the town's social worker, who also happens to have her eye on Clay. With a possible romantic triangle brewing, two energetic kids, a Christmas pageant, and more, what will happen next in Mayville? This is a darling holiday winner that fans of romantic comedy will take to like a duck to water. It has comedy, sparring flames, old biddies and cute kids, as well as good sets, costumes, a clever script and a zesty direction. Looking for a mood setter to re-capture the holiday spirit? Remember to look for this one!


As per ptg's earlier request I've encoded this in the mp4 format. Quality comparison is pointless as the DVD print quality was so crap it wasn't even worth wasting any more bitrate on, hence the modest file size. It's watchable but that's about it.

[Image] [Image] [Image] [Image] [Image] [Image] [Image] [Image] [Image] [Image]

General
Complete name : A Holiday To Remember 1995 DVDRip loverboy.mp4
Format : MPEG-4
Format profile : Base Media / Version 2
Codec ID : mp42
File size : 786 MiB
Duration : 1h 34mn
Overall bit rate mode : Variable
Overall bit rate : 1 164 Kbps
Encoded date : UTC 2012-12-05 13:13:27
Tagged date : UTC 2012-12-05 13:45:26
Writing application : HandBrake 0.9.8 2012071700

Video
ID : 1
Format : AVC
Format/Info : Advanced Video Codec
Format profile : Main@L3.0
Format settings, CABAC : Yes
Format settings, ReFrames : 4 frames
Codec ID : avc1
Codec ID/Info : Advanced Video Coding
Duration : 1h 34mn
Bit rate mode : Variable
Bit rate : 1 000 Kbps
Width : 720 pixels
Height : 480 pixels
Display aspect ratio : 3:2
Frame rate mode : Constant
Frame rate : 29.970 fps
Standard : NTSC
Color space : YUV
Chroma subsampling : 4:2:0
Bit depth : 8 bits
Scan type : Progressive
Bits/(Pixel*Frame) : 0.097
Stream size : 675 MiB (86%)
Writing library : x264 core 120

Audio
ID : 2
Format : AAC
Format/Info : Advanced Audio Codec
Format profile : LC
Codec ID : 40
Duration : 1h 34mn
Bit rate mode : Variable
Bit rate : 160 Kbps
Maximum bit rate : 331 Kbps
Channel(s) : 2 channels
Channel positions : Front: L R
Sampling rate : 48.0 KHz
Compression mode : Lossy
Delay relative to video : 67ms
Stream size : 108 MiB (14%)
Language : English

Like this post to see ed2k links  [786.07 Mb]

lb
Last edited by loverboy on Thu Dec 06, 2012 11:22 pm, edited 1 time in total.
User avatar
emuler
Posts: 4104
Likes:
Joined: Sun Apr 02, 2006 1:00 am

Re: [REL] A Holiday To Remember (1995) TV Movie

Postby emuler » Thu Dec 06, 2012 4:32 am  0 likes

Thanks, lb. :D And don't knock the file size - YIFY and anoxmous can do a 720p rip in that.
User avatar
loverboy
Posts: 1832
Likes:
Joined: Sun Sep 24, 2006 1:00 am

Re: [REL] A Holiday To Remember (1995) TV Movie

Postby loverboy » Thu Dec 06, 2012 11:23 pm  0 likes

DVD artwork added to release.

lb

Return to “United States”

Who is online

Users browsing this forum: No registered users and 8 guests