[REL] The Homecoming: A Christmas Story (1971) (TV)

User avatar
loverboy
Posts: 1832
Likes:
Joined: Sun Sep 24, 2006 1:00 am

[REL] The Homecoming: A Christmas Story (1971) (TV)

Postby loverboy » Mon Dec 17, 2012 9:55 pm  12 likes

http://www.imdb.com/title/tt1795000/

Christmas with the Walton family! This was the 1971 pilot movie for the successful TV series & is actually a pretty decent seasonal film.

Patricia Neal, Richard Thomas, Edgar Bergen, and Cleavon Little star in this award-winning drama that inspired the long-running, vastly popular TV series, "The Waltons." Set on a Depression Christmas Eve in 1933, this heart-tugging story centers around the Waltons. They're a rural American family preparing to celebrate Christmas together. Though times are tough, love and sharing are abundant in this family. An inspiring tale of love, hope and spirit, this deeply moving story goes far beyond the boundaries of time and place to reach out and touch everyone, everywhere.


[Image] [Image] [Image] [Image] [Image] [Image] [Image] [Image] [Image] [Image] [Image] [Image] [Image] [Image] [Image]

General
Complete name : G:\RIPS\The Homecoming 1971 isoRip loverboy.mp4
Format : MPEG-4
Format profile : Base Media / Version 2
Codec ID : mp42
File size : 1.42 GiB
Duration : 1h 38mn
Overall bit rate mode : Variable
Overall bit rate : 2 066 Kbps
Encoded date : UTC 2012-12-08 18:38:10
Tagged date : UTC 2012-12-08 19:04:31
Writing application : HandBrake 0.9.8 2012071700

Video
ID : 1
Format : AVC
Format/Info : Advanced Video Codec
Format profile : Main@L3.0
Format settings, CABAC : Yes
Format settings, ReFrames : 4 frames
Codec ID : avc1
Codec ID/Info : Advanced Video Coding
Duration : 1h 38mn
Bit rate mode : Variable
Bit rate : 1 900 Kbps
Width : 720 pixels
Height : 480 pixels
Display aspect ratio : 3:2
Frame rate mode : Variable
Frame rate : 23.976 fps
Minimum frame rate : 8.563 fps
Maximum frame rate : 29.970 fps
Standard : NTSC
Color space : YUV
Chroma subsampling : 4:2:0
Bit depth : 8 bits
Scan type : Progressive
Bits/(Pixel*Frame) : 0.229
Stream size : 1.31 GiB (92%)
Writing library : x264 core 120

Audio
ID : 2
Format : AAC
Format/Info : Advanced Audio Codec
Format profile : LC
Codec ID : 40
Duration : 1h 38mn
Bit rate mode : Variable
Bit rate : 160 Kbps
Maximum bit rate : 234 Kbps
Channel(s) : 2 channels
Channel positions : Front: L R
Sampling rate : 48.0 KHz
Compression mode : Lossy
Delay relative to video : 167ms
Stream size : 113 MiB (8%)
Language : English

Like this post to see ed2k links  [1.42 Gb]

lb
User avatar
starfish21
Posts: 3376
Likes:
Joined: Tue May 23, 2006 1:00 am

Re: [REL] The Homecoming: A Christmas Story (1971) (TV)

Postby starfish21 » Mon Dec 17, 2012 10:01 pm  0 likes

i just knew you would have something xmassy up your sleeve. :D

we've had 3 in 2 days. 8-)
User avatar
ptguardian
Posts: 4479
Likes:
Joined: Wed Sep 17, 2008 1:00 am

Re: [REL] The Homecoming: A Christmas Story (1971) (TV)

Postby ptguardian » Mon Dec 17, 2012 10:39 pm  0 likes

This shows concept came from another film that I don't think is posted here. "Spencer's Mountain" I have it and can post it at some point but perhaps someone else could be so kind as to do it sooner. It is an easy one to find and I have other goodies I am wanting to post first. ;)
User avatar
emuler
Posts: 4104
Likes:
Joined: Sun Apr 02, 2006 1:00 am

Re: [REL] The Homecoming: A Christmas Story (1971) (TV)

Postby emuler » Tue Dec 18, 2012 5:45 am  0 likes

Thanks, lb. Looking forward to watching this. :D

Return to “United States”

Who is online

Users browsing this forum: No registered users and 4 guests