[REL] Normal (2003)

User avatar
For An Angel
Posts: 655
Likes:
Joined: Sat Jan 02, 2010 1:00 am

[REL] Normal (2003)

Postby For An Angel » Sat Feb 09, 2013 1:16 am  13 likes

http://www.imdb.com/title/tt0338290/

[Image]
After 25 years of marriage, Roy Applewood (Tom Wilkinson) surprises his wife, Irma (Jessica Lange), by announcing that he'd rather be a woman, and in fact has felt like a woman for most of his adult life. As Roy undergoes the standard hormone and prosthetics process to transform himself into "Ruth," his sudden gender switch elicits shock, surprise, and anger from friends, family members, and co-workers alike -- but also is met with support and sympathy from a number of extremely unlikely sources. Tastefully produced and acted, the film wisely avoids shock value in its subject matter and condescension in its treatment of middle-America types.

This one stars Hayden Panettiere as 12 year old Patty Ann, the daughter of a man decides to have a sex change operation.

[Image][Image][Image][Image][Image]
[Image][Image][Image][Image][Image]
[Image][Image][Image][Image][Image]
[Image][Image][Image][Image][Image]



Like this post to see ed2k links  [1.37 Gb]

Spoiler:

General
Complete name : C:\Users\For An Angel\Downloads\eMule\Incoming\Normal.(Normal,2003).(Spanish.English).DVD-Rip.XviD.avi
Format : AVI
Format/Info : Audio Video Interleave
File size : 1.37 GiB
Duration : 1h 52mn
Overall bit rate mode : Variable
Overall bit rate : 1 740 Kbps
Writing application : VirtualDubMod 1.5.4.1 (build 2178/release)
Writing library : VirtualDubMod build 2178/release

Video
ID : 0
Format : MPEG-4 Visual
Format profile : Advanced Simple@L5
Format settings, BVOP : 1
Format settings, QPel : No
Format settings, GMC : No warppoints
Format settings, Matrix : Custom
Codec ID : XVID
Codec ID/Hint : XviD
Duration : 1h 52mn
Bit rate : 1 166 Kbps
Width : 624 pixels
Height : 352 pixels
Display aspect ratio : 16:9
Frame rate : 25.000 fps
Color space : YUV
Chroma subsampling : 4:2:0
Bit depth : 8 bits
Scan type : Progressive
Compression mode : Lossy
Bits/(Pixel*Frame) : 0.212
Stream size : 941 MiB (67%)
Writing library : XviD 1.2.0SMP (UTC 2006-01-08)

Audio #1
ID : 1
Format : AC-3
Format/Info : Audio Coding 3
Mode extension : CM (complete main)
Format settings, Endianness : Big
Codec ID : 2000
Duration : 1h 52mn
Bit rate mode : Constant
Bit rate : 448 Kbps
Channel(s) : 6 channels
Channel positions : Front: L C R, Side: L R, LFE
Sampling rate : 48.0 KHz
Bit depth : 16 bits
Compression mode : Lossy
Stream size : 361 MiB (26%)
Alignment : Split accross interleaves
Interleave, duration : 96 ms (2.40 video frames)
Interleave, preload duration : 96 ms
Language : Spanish

Audio #2
ID : 2
Format : MPEG Audio
Format version : Version 1
Format profile : Layer 3
Mode : Joint stereo
Mode extension : MS Stereo
Codec ID : 55
Codec ID/Hint : MP3
Duration : 1h 52mn
Bit rate mode : Variable
Bit rate : 111 Kbps
Nominal bit rate : 128 Kbps
Channel(s) : 2 channels
Sampling rate : 48.0 KHz
Compression mode : Lossy
Stream size : 89.3 MiB (6%)
Alignment : Aligned on interleaves
Interleave, duration : 24 ms (0.60 video frame)
Interleave, preload duration : 639 ms
Writing library : LAME3.97b
Encoding settings : -m j -V 4 -q 2 -lowpass 17 --abr 128
Language : English

Return to “United States”

Who is online

Users browsing this forum: No registered users and 2 guests