[REL] Game of Thrones (2011- ) TV Series

User avatar
emuler
Posts: 4104
Likes:
Joined: Sun Apr 02, 2006 1:00 am

[REL] Game of Thrones (2011- ) TV Series

Postby emuler » Wed Mar 27, 2013 4:09 pm  1 likes

Wow! Wow! Wow! Wow! Wow!

[Image]

http://www.imdb.com/title/tt0944947

Seven noble families fight for control of the mythical land of Westeros. Political and sexual intrigue is pervasive. Robert Baratheon, King of Westeros, asks his old friend Eddard, Lord Stark, to serve as Hand of the King, or highest official. Secretly warned that the previous Hand was assassinated, Eddard accepts in order to investigate further. Meanwhile the Queen's family, the Lannisters, may be hatching a plot to take power. Across the sea, the last members of the previous and deposed ruling family, the Targaryens, are also scheming to regain the throne. The friction between the houses Stark, Lannister and Baratheon, and with the remaining great houses Greyjoy, Tully, Arryn, and Tyrell, leads to full-scale war. All while a very ancient evil awakens in the farthest north. Amidst the war and political confusion, a neglected military order of misfits, the Night's Watch, is all that stands between the realms of men and icy horrors beyond.


Magnificent ADULT fantasy TV series. Has me totally hooked. :onfire Has a couple of FLM worthy children in major roles. No nudity from them, so far, but plenty of graphic nudity, sex and violence from the older cast which includes a young looking 24 year old - Emilia Clarke. ARTHORIUS will be pleased. :roll:

FLM interest: Maisie Williams http://www.imdb.com/name/nm3586035/ I didn't think much of her at first, but she grows on you. :inlove Has a role as big as the rest of the central characters, although screen time is shared by a large cast.

[Image]

Older sister is played by Sophie Turner who was 15 when the first season started.

My internet is being a real PITA. Can't even upload more screenshots. Will try again later when things are better.

Seasons 1 and 2 released on BluRay. BRrip by ganool available on torrent - about 4GB per season. Go get. :icon_1dancingban :icon_1dancingban :icon_1dancingban

http://thepiratebay.se/torrent/8271075/Game_Of_Thrones_(2011)_Season_1_BluRay_720p_x264_Ganool
http://thepiratebay.se/torrent/8271029/Game_of_Thrones_(2012)_Season_2_BluRay_720p_x264_Ganool
User avatar
emuler
Posts: 4104
Likes:
Joined: Sun Apr 02, 2006 1:00 am

Re: [REQ]/[REL] Game of Thrones (2011 - ) TV Series

Postby emuler » Wed Mar 27, 2013 4:17 pm  1 likes

The links to TPB are screwed up. Please select the entire line, copy, and paste in browser address bar.
User avatar
Phuzzy4242
Site Admin
Posts: 6670
Likes:
Joined: Sun Aug 23, 2009 1:00 am

Re: [REQ]/[REL] Game of Thrones (2011 - ) TV Series

Postby Phuzzy4242 » Wed Mar 27, 2013 4:34 pm  1 likes

Try it like this...

Season 1
Season 2
User avatar
emuler
Posts: 4104
Likes:
Joined: Sun Apr 02, 2006 1:00 am

Re: [REQ]/[REL] Game of Thrones (2011 - ) TV Series

Postby emuler » Fri Mar 29, 2013 4:10 pm  1 likes

[Image]
[Image]

[Image]
[Image]

[Image]
User avatar
idler
Posts: 1107
Likes:
Joined: Sat Apr 01, 2006 1:00 am

Re: [REQ]/[REL] Game of Thrones (2011 - ) TV Series

Postby idler » Sat Dec 07, 2013 3:24 pm  0 likes

[Image]
This is the little girl Arya takes care of in season 4.
BTW, got the first 3 seasons in 1080p. Anybody interested with torrent or eMule?
No stress!
User avatar
emuler
Posts: 4104
Likes:
Joined: Sun Apr 02, 2006 1:00 am

Re: [REQ]/[REL] Game of Thrones (2011- ) TV Series

Postby emuler » Mon Dec 09, 2013 5:46 pm  1 likes

Do you know if there is any difference between the TV and BluRay versions? The BluRay of Season 3 is expected to come out in Feb 2014. Should I hold out till then?
User avatar
idler
Posts: 1107
Likes:
Joined: Sat Apr 01, 2006 1:00 am

Re: [REQ]/[REL] Game of Thrones (2011- ) TV Series

Postby idler » Mon Dec 09, 2013 9:59 pm  0 likes

Here is a direct comparison between S02E01 "The North remembers" (BlueRay-rip) and S02E01 (HDTV-rip), both with German dubbing:

BlueRay:

General
Unique ID : 235180684059840298591811116320374603444 (0xB0EE26F5164AC50A84346970498F3EB4)
Complete name : E:\GoT\S2_2012\got.S02E01 Der Norden vergisst nicht.mkv
Format : Matroska
Format version : Version 4 / Version 2
File size : 5.13 GiB
Duration : 52mn 41s
Overall bit rate : 13.9 Mbps
Encoded date : UTC 2013-04-07 01:10:41
Writing application : mkvmerge v6.1.0 ('Old Devil') built on Mar 2 2013 14:32:37
Writing library : libebml v1.3.0 + libmatroska v1.4.0

Video
ID : 1
Format : AVC
Format/Info : Advanced Video Codec
Format profile : High@L4.1
Format settings, CABAC : Yes
Format settings, ReFrames : 4 frames
Codec ID : V_MPEG4/ISO/AVC
Duration : 52mn 41s
Bit rate : 11.4 Mbps
Width : 1 920 pixels
Height : 1 080 pixels
Display aspect ratio : 16:9
Frame rate mode : Constant
Frame rate : 23.976 fps
Color space : YUV
Chroma subsampling : 4:2:0
Bit depth : 8 bits
Scan type : Progressive
Bits/(Pixel*Frame) : 0.229
Stream size : 4.19 GiB (82%)
Writing library : x264 core 130 r2273 b3065e6
Encoding settings : cabac=1 / ref=4 / deblock=1:-1:-1 / analyse=0x3:0x133 / me=umh / subme=10 / psy=1 / psy_rd=1.00:0.15 / mixed_ref=1 / me_range=24 / chroma_me=1 / trellis=2 / 8x8dct=1 / cqm=0 / deadzone=21,11 / fast_pskip=0 / chroma_qp_offset=-3 / threads=36 / lookahead_threads=6 / sliced_threads=0 / nr=0 / decimate=0 / interlaced=0 / bluray_compat=0 / constrained_intra=0 / bframes=8 / b_pyramid=2 / b_adapt=2 / b_bias=0 / direct=3 / weightb=1 / open_gop=0 / weightp=2 / keyint=250 / keyint_min=23 / scenecut=40 / intra_refresh=0 / rc_lookahead=60 / rc=crf / mbtree=1 / crf=18.0 / qcomp=0.60 / qpmin=0 / qpmax=69 / qpstep=4 / ip_ratio=1.40 / aq=1:1.00
Default : Yes
Forced : No

Audio #1
ID : 2
Format : DTS
Format/Info : Digital Theater Systems
Mode : 16
Format settings, Endianness : Big
Codec ID : A_DTS
Duration : 52mn 41s
Bit rate mode : Constant
Bit rate : 768 Kbps
Channel count : 6 channels
Channel positions : Front: L C R, Side: L R, LFE
Sampling rate : 48.0 KHz
Bit depth : 24 bits
Compression mode : Lossy
Stream size : 289 MiB (6%)
Title : DTS 5.1 @ 768 kbps
Language : German
Default : Yes
Forced : No

Audio #2
ID : 3
Format : DTS
Format/Info : Digital Theater Systems
Mode : 16
Format settings, Endianness : Big
Codec ID : A_DTS
Duration : 52mn 41s
Bit rate mode : Constant
Bit rate : 1 509 Kbps
Channel count : 6 channels
Channel positions : Front: L C R, Side: L R, LFE
Sampling rate : 48.0 KHz
Bit depth : 24 bits
Compression mode : Lossy
Stream size : 569 MiB (11%)
Title : DTS 5.1 @ 1536 kbps
Language : English
Default : No
Forced : No

Text #1
ID : 4
Format : UTF-8
Codec ID : S_TEXT/UTF8
Codec ID/Info : UTF-8 Plain Text
Title : DE forced
Language : German
Default : Yes
Forced : Yes

Text #2
ID : 5
Format : UTF-8
Codec ID : S_TEXT/UTF8
Codec ID/Info : UTF-8 Plain Text
Title : EN forced
Language : English
Default : No
Forced : No

Text #3
ID : 6
Format : UTF-8
Codec ID : S_TEXT/UTF8
Codec ID/Info : UTF-8 Plain Text
Title : DE komplett
Language : German
Default : No
Forced : No

Text #4
ID : 7
Format : UTF-8
Codec ID : S_TEXT/UTF8
Codec ID/Info : UTF-8 Plain Text
Title : EN komplett
Language : English
Default : No
Forced : No

Menu
00:00:00.000 : en:Chapter 00
00:01:54.531 : en:Chapter 01
00:10:16.157 : en:Chapter 02
00:18:15.511 : en:Chapter 03
00:24:27.215 : en:Chapter 04
00:31:39.689 : en:Chapter 05
00:41:03.669 : en:Chapter 06
00:51:21.703 : en:Chapter 07



HDTV:


General
Unique ID : 232392898680566500165892803569014869969 (0xAED53E86B8ACB1CC93F4DD0E0B490FD1)
Complete name : E:\S2\got.s02e01 Der Norden vergisst nicht.mkv
Format : Matroska
Format version : Version 2
File size : 3.50 GiB
Duration : 50mn 30s
Overall bit rate : 9 912 Kbps
Movie name : PRETAiL
Encoded date : UTC 2012-06-14 17:48:42
Writing application : mkvmerge v3.4.0 ('Rapunzel') gebaut am May 15 2010 09:38:20
Writing library : libebml v0.8.0 + libmatroska v0.9.0
Attachment : Yes

Video
ID : 1
Format : AVC
Format/Info : Advanced Video Codec
Format profile : High@L4.1
Format settings, CABAC : Yes
Format settings, ReFrames : 4 frames
Codec ID : V_MPEG4/ISO/AVC
Duration : 50mn 30s
Bit rate : 8 883 Kbps
Width : 1 920 pixels
Height : 1 072 pixels
Display aspect ratio : 16:9
Frame rate mode : Constant
Frame rate : 25.000 fps
Color space : YUV
Chroma subsampling : 4:2:0
Bit depth : 8 bits
Scan type : Progressive
Bits/(Pixel*Frame) : 0.173
Stream size : 3.13 GiB (90%)
Title : PRETAiL Encode 1080p
Writing library : x264 PRETAiL
Encoding settings : cabac=1 / ref=4 / deblock=1:0:0 / analyse=0x3:0x113 / me=umh / subme=10 / psy=1 / psy_rd=1.10:0.00 / mixed_ref=1 / me_range=24 / chroma_me=1 / trellis=2 / 8x8dct=1 / cqm=0 / deadzone=21,11 / fast_pskip=0 / chroma_qp_offset=-2 / threads=6 / lookahead_threads=1 / sliced_threads=0 / nr=0 / decimate=1 / interlaced=0 / bluray_compat=0 / constrained_intra=0 / bframes=5 / b_pyramid=2 / b_adapt=1 / b_bias=0 / direct=3 / weightb=1 / open_gop=0 / weightp=2 / keyint=250 / keyint_min=25 / scenecut=40 / intra_refresh=0 / rc=crf / mbtree=0 / crf=19.5 / qcomp=0.60 / qpmin=15 / qpmax=69 / qpstep=4 / ip_ratio=1.40 / pb_ratio=1.30 / aq=1:1.00
Language : German
Default : Yes
Forced : Yes

Audio #1
ID : 2
Format : AC-3
Format/Info : Audio Coding 3
Mode extension : CM (complete main)
Format settings, Endianness : Big
Codec ID : A_AC3
Duration : 50mn 30s
Bit rate mode : Constant
Bit rate : 448 Kbps
Channel count : 6 channels
Channel positions : Front: L C R, Side: L R, LFE
Sampling rate : 48.0 KHz
Bit depth : 16 bits
Compression mode : Lossy
Stream size : 162 MiB (5%)
Title : PRETAiL AC3 5.1
Language : German
Default : Yes
Forced : Yes

Audio #2
ID : 3
Format : AC-3
Format/Info : Audio Coding 3
Mode extension : CM (complete main)
Format settings, Endianness : Big
Codec ID : A_AC3
Duration : 50mn 30s
Bit rate mode : Constant
Bit rate : 384 Kbps
Channel count : 6 channels
Channel positions : Front: L C R, Side: L R, LFE
Sampling rate : 48.0 KHz
Bit depth : 16 bits
Compression mode : Lossy
Stream size : 139 MiB (4%)
Title : PRETAiL AC3 5.1
Language : English
Default : No
Forced : No

Text
ID : 4
Format : ASS
Codec ID : S_TEXT/ASS
Codec ID/Info : Advanced Sub Station Alpha
Compression mode : Lossless
Title : PRETAiL Forced Subs ASS
Language : German
Default : Yes
Forced : Yes

Menu
00:00:00.000 : en:00:00:00.000
00:02:12.466 : en:00:02:12.466
00:09:40.789 : en:00:09:40.789
00:18:32.903 : en:00:18:32.903
00:28:44.473 : en:00:28:44.473
00:38:42.153 : en:00:38:42.153
00:50:08.756 : en:00:50:08.756




Apart of the BR-bonuses like actor commentaries and other extras, the BR image quality is really stunning and, in my opinion, worth the waiting if you are not in a hurry... :shock:

Just for the record: forget about that "4 GB per season" junk. You'll need at least 10 times as much, and if you are a fan of the series, you will do it with Torrent. The following should be your minimum standard:

http://thepiratebay.ac/torrent/7140312/Game_of_Thrones_Season_1_%28BluRay_1080p_MultiSub%29_%5BFtR%5D
http://thepiratebay.ac/torrent/8146909/Game.of.Thrones.S02.Season.2.1080p.BluRay.x264-PublicHD

Just use the search function of P-Bay: thrones 1080p, sort by "Size" and make your choice carefully. Read the comments of the posts before you make your decision!

I apologize to whoever is Admin on this board at present for advertising Torrent instead of eMule, but I feel emuler needs some advice,
and these files are really huge. Don't get me wrong: I'm not going to support this ugly bulldog infiniter! :roll:

Don't mess with The Hound. What is Sandor Clegane doing here with Arya Stark of Winterfell?

[Image]
Last edited by idler on Wed Jan 01, 2014 3:02 pm, edited 2 times in total.
No stress!
User avatar
emuler
Posts: 4104
Likes:
Joined: Sun Apr 02, 2006 1:00 am

Re: [REQ]/[REL] Game of Thrones (2011- ) TV Series

Postby emuler » Wed Dec 11, 2013 8:27 am  1 likes

Thanks, idler. :) I would have been more interested in a comparison between S02E01 BluRay and S02E01 HDTV. I suppose it is more relevant to people from my part of the world. TV here is very rigidly censored - absolutely NO NUDITY AT ALL :wall: - and bad language is often bleeped out. Even subtitles are not spared. The general feeling here is that DVDs and BluRays are less censored for content. This applies even to Russian TV (with or without the ghastly overdub); for instance, they will show nudity, but will censor any explicit stuff.
User avatar
idler
Posts: 1107
Likes:
Joined: Sat Apr 01, 2006 1:00 am

Re: [REQ]/[REL] Game of Thrones (2011- ) TV Series

Postby idler » Wed Dec 11, 2013 11:23 am  1 likes

emuler wrote:Thanks, idler. :) I would have been more interested in a comparison between S02E01 BluRay and S02E01 HDTV. I suppose it is more relevant to people from my part of the world. TV here is very rigidly censored - absolutely NO NUDITY AT ALL :wall: - and bad language is often bleeped out. Even subtitles are not spared. The general feeling here is that DVDs and BluRays are less censored for content. This applies even to Russian TV (with or without the ghastly overdub); for instance, they will show nudity, but will censor any explicit stuff.

As My Lord commands. I edited the above post to a comparison between BluRay and HDTV of the same episode; that should keep you busy for a while.

As for censorship, I understood you are living in a big country well south of Russia? For Game of Thrones, you better turn the other way around. GoT is released in Australia but half a year later than in the rest of the world, so everybody has a pirated version! And HBO tolerates it. Asked wether he thinks it's a compliment to own the most pirated show in the world, Time Warner CEO Jeff Bewkes answered bluntly: „I have to admit it, I think you’re right. If you go to people who are watching it without subs[cription], it's a tremendous word-of-mouth thing," the exec told investors. "We've been dealing with this for 20, 30 years—people sharing subs, running wires down the backs of apartment buildings. Our experience is that it leads to more paying subs. I think you're right that Game of Thrones is the most pirated show in the world," he said. "That's better than an Emmy.".

On November 11th, 2013, there was a remarkable panel discussion with Lena Headey, Michelle Fairley and George R.R. Martin called "Ideas at the House". You can see it on YouTube; it took place at the Sydney Opera House, and Governor General Quentin Bryce was present, so it was very official. The moderator greeted the audience: "You are the first Australians ever to pay for "Game of Thrones!", and everybody laughed. Nobody cares about Copyright regarding GoT. You might find it difficult to follow an English discussion between a girl from Bermuda (Headey), a girl from Northern Ireland (Fairley), an East-coast-American living in New Mexico (Martin) and an Australian. Well, may be you hear strange English dialects in your country quite often.

Anyway, if you are looking for HQ versions of GoT, turn to "Down Under", they really do a great job. ;)
No stress!
User avatar
emuler
Posts: 4104
Likes:
Joined: Sun Apr 02, 2006 1:00 am

Re: [REQ]/[REL] Game of Thrones (2011- ) TV Series

Postby emuler » Wed Dec 11, 2013 6:35 pm  1 likes

Thanks again, idler. Appreciated. I notice that the BluRay version is 52m 41s while the HDTV version is 50m 30s, but if you take into consideration the different frame rates, the BluRay version has just 38 extra frames, which could easily be attributed to the running time of the credits.

Sadly, we can't determine as much from the duration of the video as we used to. Censorship has come a long way from the days when 'objectionable' content was simply snipped out, resulting in the edited video being shorter in length. Now they can re-edit the footage, stretch the remaining footage by adding repeated frames to make up the length, re-sync the audio, add subtle shading and fogging, use panning to crop the original content to leave the objectionable stuff off-screen, etc. Only someone who has seen both versions can really be sure.

Return to “United States”

Who is online

Users browsing this forum: No registered users and 3 guests