[REL] Lloyd (2001)

User avatar
loverboy
Posts: 1832
Likes:
Joined: Sun Sep 24, 2006 1:00 am

[REL] Lloyd (2001)

Postby loverboy » Tue Apr 16, 2013 2:42 pm  12 likes

http://www.imdb.com/title/tt0207585/combined

AKA "The Ugly Kid"

[Image]

Lloyd is a sweet and funny 11 year old class clown who's always getting into trouble with his teachers. Mrs. Crub is the meanest teacher in school. When Lloyd tries to rescue one of his classmates from her cruelty, he is banished to a class for "less enthusiastic" students. There, Lloyd joins three other sub-par students: Troy, Carla, and Storm. Lloyd learns a lesson about love when pretty Tracey becomes the newest class member. For Lloyd it's love at first sight. Unfortunately for sweet Lloyd, he is no match for the handsome Storm, the junior high "rebel without a cause." But with help from his mom, his little brother, and a mysterious magician, Lloyd learns that confidence and self-esteem can still get him the pretty girl in the end.


[Image][Image][Image][Image][Image][Image]
[Image][Image][Image][Image][Image][Image]
[Image][Image][Image][Image][Image][Image]
[Image][Image][Image][Image][Image][Image]

General
Complete name : Lloyd 2001 isoRip loverboy.mp4
Format : MPEG-4
Format profile : Base Media / Version 2
Codec ID : mp42
File size : 1.17 GiB
Duration : 1h 17mn
Overall bit rate mode : Variable
Overall bit rate : 2 166 Kbps
Encoded date : UTC 2013-04-16 11:42:40
Tagged date : UTC 2013-04-16 12:04:43
Writing application : HandBrake 0.9.8 2012071700

Video
ID : 1
Format : AVC
Format/Info : Advanced Video Codec
Format profile : Main@L3.0
Format settings, CABAC : Yes
Format settings, ReFrames : 4 frames
Codec ID : avc1
Codec ID/Info : Advanced Video Coding
Duration : 1h 17mn
Bit rate mode : Variable
Bit rate : 2 000 Kbps
Width : 720 pixels
Height : 544 pixels
Display aspect ratio : 4:3
Frame rate mode : Variable
Frame rate : 24.000 fps
Minimum frame rate : 9.990 fps
Maximum frame rate : 29.970 fps
Color space : YUV
Chroma subsampling : 4:2:0
Bit depth : 8 bits
Scan type : Progressive
Bits/(Pixel*Frame) : 0.213
Stream size : 1.08 GiB (92%)
Writing library : x264 core 120

Audio
ID : 2
Format : AAC
Format/Info : Advanced Audio Codec
Format profile : LC
Codec ID : 40
Duration : 1h 17mn
Bit rate mode : Variable
Bit rate : 160 Kbps
Maximum bit rate : 204 Kbps
Channel(s) : 2 channels
Channel positions : Front: L R
Sampling rate : 48.0 KHz
Compression mode : Lossy
Delay relative to video : 133ms
Stream size : 88.8 MiB (7%)
Language : English


Like this post to see ed2k links  [1.17 Gb]

lb
User avatar
Phuzzy4242
Site Admin
Posts: 6625
Likes:
Joined: Sun Aug 23, 2009 1:00 am

Re: [REL] Lloyd (2001)

Postby Phuzzy4242 » Tue Apr 16, 2013 9:59 pm  1 likes

[Image]
Ginger alert! :heart
User avatar
starfish21
Posts: 3376
Likes:
Joined: Tue May 23, 2006 1:00 am

Re: [REL] Lloyd (2001)

Postby starfish21 » Wed Apr 17, 2013 5:31 am  0 likes

Lb's been a good ginger supplier recently. :D

[Image]

Return to “United States”

Who is online

Users browsing this forum: No registered users and 1 guest