[REL] Future Weather (2012)

User avatar
For An Angel
Posts: 654
Likes:
Joined: Sat Jan 02, 2010 1:00 am

[REL] Future Weather (2012)

Postby For An Angel » Tue Apr 16, 2013 4:55 pm  25 likes

http://www.imdb.com/title/tt1701215/
http://rarefilmfinder.com/showfilm.php?id=35601

[Image]

Like Raspberry Magic, this one depicts a young girl who is interested in science. Starring Perla Haney-Jardine from Kill Bill Vol. 2 & A Summer in Genoa. Based on the short film Save the Future by the same filmmaker and also starring Perla Haney-Jardine.
Lauduree is a 13-year-old loner, passionate about nature and obsessed with ecological disaster. Greta, her grandmother, is a fiery nurse jaded by alcohol and disappointment. When Lauduree is abruptly abandoned by her dreamer single mom, she decides to take survival into her own hands, forcing her and Greta to learn to trust each other and leap into the unknown.

Featuring humorous, sharply drawn characters and powerful performances by Amy Madigan, Lili Taylor, and breakout star Perla Haney-Jardine, FUTURE WEATHER is about finding the courage to survive change.

[Image][Image][Image][Image][Image]
[Image][Image][Image][Image][Image]
[Image][Image][Image][Image][Image]
[Image][Image][Image][Image][Image]


Like this post to see ed2k links  [1.29 Gb]
Spoiler:

General
Complete name : C:\Users\For An Angel\Downloads\eMule\Incoming\Future Weather.avi
Format : AVI
Format/Info : Audio Video Interleave
File size : 1.29 GiB
Duration : 1h 39mn
Overall bit rate : 1 851 Kbps
Writing application : VirtualDubMod 1.5.4.1 (build 2178/release)
Writing library : VirtualDubMod build 2178/release

Video
ID : 0
Format : MPEG-4 Visual
Format profile : Advanced Simple@L5
Format settings, BVOP : No
Format settings, QPel : No
Format settings, GMC : No warppoints
Format settings, Matrix : Custom
Codec ID : XVID
Codec ID/Hint : XviD
Duration : 1h 39mn
Bit rate : 1 396 Kbps
Width : 720 pixels
Height : 304 pixels
Display aspect ratio : 2.35:1
Frame rate : 23.976 fps
Color space : YUV
Chroma subsampling : 4:2:0
Bit depth : 8 bits
Scan type : Progressive
Compression mode : Lossy
Bits/(Pixel*Frame) : 0.266
Stream size : 997 MiB (75%)
Writing library : XviD 64

Audio
ID : 1
Format : AC-3
Format/Info : Audio Coding 3
Mode extension : CM (complete main)
Format settings, Endianness : Big
Codec ID : 2000
Duration : 1h 39mn
Bit rate mode : Constant
Bit rate : 448 Kbps
Channel(s) : 6 channels
Channel positions : Front: L C R, Side: L R, LFE
Sampling rate : 48.0 KHz
Bit depth : 16 bits
Compression mode : Lossy
Stream size : 320 MiB (24%)
Alignment : Split accross interleaves
Interleave, duration : 96 ms (2.30 video frames)
Interleave, preload duration : 96 ms
Language : English

User avatar
kev
Site Admin
Posts: 2923
Likes:
Joined: Tue Jan 17, 2006 1:00 am

Re: [REL] Future Weather (2012)

Postby kev » Wed Apr 17, 2013 3:32 am  0 likes

John Anderson, Variety wrote:Quietly spectacular... A tour de force


Wow!!

Sounds like a great film! Many MANY thanks for bringing this here, FAA!! :thumbsup

kev.

Return to “United States”

Who is online

Users browsing this forum: No registered users and 4 guests