[REL] Inhabited (2003)

User avatar
loverboy
Posts: 1832
Likes:
Joined: Sun Sep 24, 2006 1:00 am

[REL] Inhabited (2003)

Postby loverboy » Sat Jun 15, 2013 12:40 pm  11 likes

http://www.imdb.com/title/tt0329224/combined

[Image][Image]

Little known & virtually sunk without trace, this pretty naff horror features Sofia Vassilieva, the cute but obnoxious little shit from "Eloise at the Plaza/Eloise at Christmastime". Still just as cute but with a considerably more palatable role, she's the only reason to watch this straight-to-video howler. This may be rare but it's totally unloved in the UK.....my crappy quality Chinese import came in at drinks-coaster money!

The Russell family thinks they've found their dream home--but before long, a string of troubling events makes them reconsider. Eerie sounds, broken household items, and murdered pets clue the family in to the fact that something is seriously wrong in their new abode. At first, the Russells think that these things may have something to do with their imaginative young daughter, Gina. But when a race of ancient monsters is discovered beneath their house, they start to think about trying to escape with their lives.


[Image][Image][Image][Image][Image][Image]
[Image][Image][Image][Image][Image][Image]
[Image][Image][Image][Image][Image][Image]

General
Complete name : Inhabited 2003 DVDRip loverboy.mp4
Format : MPEG-4
Format profile : Base Media / Version 2
Codec ID : mp42
File size : 1.44 GiB
Duration : 1h 34mn
Overall bit rate mode : Variable
Overall bit rate : 2 174 Kbps

Video
ID : 1
Format : AVC
Format/Info : Advanced Video Codec
Format profile : Main@L3.0
Format settings, CABAC : Yes
Format settings, ReFrames : 4 frames
Codec ID : avc1
Codec ID/Info : Advanced Video Coding
Duration : 1h 34mn
Bit rate : 2 008 Kbps
Width : 720 pixels
Height : 544 pixels
Display aspect ratio : 4:3
Frame rate mode : Constant
Frame rate : 25.000 fps
Color space : YUV
Chroma subsampling : 4:2:0
Bit depth : 8 bits
Scan type : Progressive
Bits/(Pixel*Frame) : 0.205
Stream size : 1.33 GiB (92%)
Language : English

Audio
ID : 2
Format : AAC
Format/Info : Advanced Audio Codec
Format profile : LC
Codec ID : 40
Duration : 1h 34mn
Source duration : 1h 34mn
Bit rate mode : Variable
Bit rate : 160 Kbps
Channel(s) : 2 channels
Channel positions : Front: L R
Sampling rate : 48.0 KHz
Compression mode : Lossy
Stream size : 108 MiB (7%)
Source stream size : 108 MiB (7%)
Language : English


Let me reiterate.....the print quality of the source is dire but this really is a DVD rip! Would I lie to you?

Like this post to see ed2k links  [1.44 Gb]

lb
User avatar
starfish21
Posts: 3376
Likes:
Joined: Tue May 23, 2006 1:00 am

Re: [REL] Inhabited (2003)

Postby starfish21 » Sat Jun 15, 2013 10:03 pm  0 likes

You're on a roll,LB,some real rare stuff.

Return to “United States”

Who is online

Users browsing this forum: No registered users and 2 guests