[REL] Just Ask My Children (2001)

User avatar
loverboy
Posts: 1832
Likes:
Joined: Sun Sep 24, 2006 1:00 am

[REL] Just Ask My Children (2001)

Postby loverboy » Tue Jun 18, 2013 8:16 pm  7 likes

http://www.imdb.com/title/tt0280474/combined

A pedophilia witch-hunt is started in Bakersfield by two teenage girls' foppish child abuse claims. Blindly ambitious justice officials, especially in the prosecutor's office, conspire to arrest loving parents Scott and Brenda Kniffen, whose doted pre-teen sons Brian and Brandon are grilled endlessly until they repeat the vicious lies, the elder even ends up believing them while they pass from one foster home to the next, as even the grandparents are denied custody for not turning on their children. The defense's rights are systematically denied, so the parents go to jail for 240 years.


[Image][Image][Image][Image][Image][Image]
[Image][Image][Image][Image][Image][Image]
[Image][Image][Image][Image][Image][Image]

General
Complete name : Just Ask My Children 2001 isoRip loverboy.mp4
Format : MPEG-4
Format profile : Base Media / Version 2
Codec ID : mp42
File size : 1.38 GiB
Duration : 1h 31mn
Overall bit rate mode : Variable
Overall bit rate : 2 164 Kbps
Writing application : HandBrake 0.9.8 2012071700

Video
ID : 1
Format : AVC
Format/Info : Advanced Video Codec
Format profile : Main@L3.1
Format settings, CABAC : Yes
Format settings, ReFrames : 4 frames
Codec ID : avc1
Codec ID/Info : Advanced Video Coding
Duration : 1h 31mn
Bit rate mode : Variable
Bit rate : 2 000 Kbps
Width : 720 pixels
Height : 544 pixels
Display aspect ratio : 4:3
Frame rate mode : Variable
Frame rate : 29.970 fps
Minimum frame rate : 9.990 fps
Maximum frame rate : 29.970 fps
Color space : YUV
Chroma subsampling : 4:2:0
Bit depth : 8 bits
Scan type : Progressive
Bits/(Pixel*Frame) : 0.170
Stream size : 1.27 GiB (92%)
Writing library : x264 core 120

Audio
ID : 2
Format : AAC
Format/Info : Advanced Audio Codec
Format profile : LC
Codec ID : 40
Duration : 1h 31mn
Bit rate mode : Variable
Bit rate : 160 Kbps
Maximum bit rate : 309 Kbps
Channel(s) : 2 channels
Channel positions : Front: L R
Sampling rate : 48.0 KHz
Compression mode : Lossy
Delay relative to video : 67ms
Stream size : 104 MiB (7%)
Language : English


Boys have the majority of the screen time here, in fact girl appearances are quite brief. However, the theme is extremely relevent.

Ripped from a DVDR posted at CG. Usual thanks etc.

Like this post to see ed2k links  [1.38 Gb]

lb

Return to “United States”

Who is online

Users browsing this forum: No registered users and 5 guests