[REL] Oculus (2013)

User avatar
For An Angel
Posts: 656
Likes:
Joined: Sat Jan 02, 2010 1:00 am

[REL] Oculus (2013)

Post by For An Angel »   11 likes

http://www.imdb.com/title/tt2388715/

[Image]
Yes, it's about a freakin mirror but it's still a very effective thriller. Annalise Basso has some pretty bad-ass scenes towards the end.
A woman tries to exonerate her brother, who was convicted of murder, by proving that the crime was committed by a supernatural phenomenon.
[Image][Image][Image][Image]


Like this post to see ed2k links  [2.12 Gb]
Spoiler:

General
Complete name : C:\Users\For An Angel\Downloads\Oculus 2013 720p WEB-DL x264 AAC-JYK\Oculus 2013 720p WEB-DL x264 AAC-JYK.mp4
Format : MPEG-4
Format profile : Base Media
Codec ID : isom
File size : 2.12 GiB
Duration : 1h 42mn
Overall bit rate mode : Variable
Overall bit rate : 2 947 Kbps
Encoded date : UTC 2014-05-24 13:44:10
Tagged date : UTC 2014-05-24 13:44:10

Video
ID : 1
Format : AVC
Format/Info : Advanced Video Codec
Format profile : High@L4.1
Format settings, CABAC : Yes
Format settings, ReFrames : 5 frames
Codec ID : avc1
Codec ID/Info : Advanced Video Coding
Duration : 1h 42mn
Bit rate : 2 750 Kbps
Maximum bit rate : 17.7 Mbps
Width : 1 280 pixels
Height : 536 pixels
Display aspect ratio : 2.40:1
Frame rate mode : Constant
Frame rate : 24.000 fps
Color space : YUV
Chroma subsampling : 4:2:0
Bit depth : 8 bits
Scan type : Progressive
Bits/(Pixel*Frame) : 0.167
Stream size : 1.98 GiB (93%)
Writing library : x264 core 138 r2358 9e941d1
Encoding settings : cabac=1 / ref=5 / deblock=1:-1:-1 / analyse=0x3:0x113 / me=umh / subme=6 / psy=1 / psy_rd=1.00:0.00 / mixed_ref=1 / me_range=20 / chroma_me=1 / trellis=1 / 8x8dct=1 / cqm=2 / deadzone=21,11 / fast_pskip=0 / chroma_qp_offset=-2 / threads=12 / lookahead_threads=3 / sliced_threads=0 / nr=0 / decimate=0 / interlaced=0 / bluray_compat=0 / constrained_intra=0 / bframes=5 / b_pyramid=2 / b_adapt=2 / b_bias=0 / direct=3 / weightb=1 / open_gop=0 / weightp=2 / keyint=240 / keyint_min=24 / scenecut=40 / intra_refresh=0 / rc_lookahead=50 / rc=2pass / mbtree=1 / bitrate=2750 / ratetol=1.0 / qcomp=0.60 / qpmin=1 / qpmax=63 / qpstep=4 / cplxblur=20.0 / qblur=0.5 / vbv_maxrate=62500 / vbv_bufsize=78125 / nal_hrd=none / ip_ratio=1.40 / aq=1:1.00
Encoded date : UTC 2014-05-24 13:40:53
Tagged date : UTC 2014-05-24 13:44:20

Audio
ID : 2
Format : AAC
Format/Info : Advanced Audio Codec
Format profile : LC
Codec ID : 40
Duration : 1h 42mn
Bit rate mode : Variable
Bit rate : 192 Kbps
Maximum bit rate : 225 Kbps
Channel(s) : 2 channels
Channel positions : Front: L R
Sampling rate : 48.0 KHz
Compression mode : Lossy
Stream size : 141 MiB (7%)
Language : English
Encoded date : UTC 2014-05-24 13:34:58
Tagged date : UTC 2014-05-24 13:44:20
User avatar
emuler
Posts: 4596
Likes:
Joined: Sun Apr 02, 2006 1:00 am

Re: [REL] Oculus (2013)

Post by emuler »   0 likes

Thanks, FAA, although I'm going for the shaanig rip which is some 750MB. Good enough for me, I think. :)

http://www.shaanig.com/f27/oculus-2013- ... g-1507667/
User avatar
Phuzzy4242
Site Admin
Posts: 7686
Likes:
Joined: Sun Aug 23, 2009 1:00 am

Re: [REL] Oculus (2013)

Post by Phuzzy4242 »   0 likes

:clap
Post Reply