[REL] Aglaja (2012) [Hungary]

RichardFleischer
Posts: 102
Likes:
Joined: Thu Nov 29, 2012 7:09 pm

[REL] Aglaja (2012) [Hungary]

Post by RichardFleischer »   2 likes

http://www.imdb.com/title/tt1527052/


This film is about the relationship of a mother and her daughter, the split-up of their family, the blessing and curse of belonging together and about coming of age - all this from the perspective of the young girl Aglaja. The story is based on real-life events, an Eastern European circus artist family that fled to the West. If they want to stay in the circus business they have to make up an exotic act. The mother spends all their money to buy a very dangerous act: hanging by her hair high up in the dome of the circus while juggling with burning torches. Every night Aglaja is terrified by the fear of losing her mother. But, on some day, she has to follow the family tradition and become the "Woman with the Hair of Steel".


http://vimeo.com/49696458
User avatar
jezevex
Posts: 1584
Likes:
Joined: Sun Jun 05, 2011 1:00 am

Re: Aglaja(2012)(Hungary)

Post by jezevex »   65 likes

User avatar
kev
Site Admin
Posts: 3521
Likes:
Joined: Tue Jan 17, 2006 1:00 am

Re: Aglaja(2012)(Hungary)

Post by kev »   0 likes

Cool!! Thanks Richard for the heads up and thanks jezevex for the quick response!! Great teamwork, once again!
:thumbsup

I'll leave it here for awhile to see if it's OT...

kev.
User avatar
Phuzzy4242
Site Admin
Posts: 7686
Likes:
Joined: Sun Aug 23, 2009 1:00 am

Re: Aglaja (2012) [Hungary]

Post by Phuzzy4242 »   1 likes

Sweet. From the trailer and the description, this looks real nice. Thanks RichardFleischer and jezevex!
User avatar
starfish21
Posts: 3376
Likes:
Joined: Tue May 23, 2006 1:00 am

Re: Aglaja (2012) [Hungary]

Post by starfish21 »   0 likes

How about giving us some more info,screens or mediainfo ?
User avatar
Phuzzy4242
Site Admin
Posts: 7686
Likes:
Joined: Sun Aug 23, 2009 1:00 am

Re: Aglaja (2012) [Hungary]

Post by Phuzzy4242 »   1 likes

I've previewed this and can verify it's on-topic.

Incidentally, renaming a release to "A.avi" does little good and fubars can happen if someone accidentally mixes up 'Maladolecenza' with 'My Little Pony'. :) I guess naming a file "A.avi" will help you pick out FLM members since only they would download that file hash, but honestly, they're low on my "to worry about" list since they could put [FLM] in their eMule nick and maybe participate just a little, even if it's just saying "thank you" to the releasers.
User avatar
starfish21
Posts: 3376
Likes:
Joined: Tue May 23, 2006 1:00 am

Re: Aglaja (2012) [Hungary]

Post by starfish21 »   0 likes

i only give priority to a select few,they could put their credit card no. in their tag and it wouldn't make a blind bit of difference to me.
User avatar
Phuzzy4242
Site Admin
Posts: 7686
Likes:
Joined: Sun Aug 23, 2009 1:00 am

Re: [REL] Aglaja (2012) [Hungary]

Post by Phuzzy4242 »   2 likes

Screencaps from this rip.
[Image] [Image] [Image] [Image]
[Image] [Image] [Image] [Image]
[Image] [Image] [Image] [Image]
[Image] [Image] [Image] [Image]
[Image] [Image] [Image] [Image]
[Image] [Image] [Image] [Image]
Spoiler:

General
Complete name : E:\_data\eMule\Aglaja (2012).avi
Format : AVI
Format/Info : Audio Video Interleave
File size : 1.31 GiB
Duration : 1h 51mn
Overall bit rate : 1 681 Kbps
Writing library : AVI OpenDML FlasKMPEG plugin release

Video
ID : 0
Format : MPEG-4 Visual
Format profile : Advanced Simple@L1
Format settings, BVOP : 2
Format settings, QPel : No
Format settings, GMC : No warppoints
Format settings, Matrix : Default (H.263)
Muxing mode : Packed bitstream
Codec ID : XVID
Codec ID/Hint : XviD
Duration : 1h 51mn
Bit rate : 1 483 Kbps
Width : 704 pixels
Height : 400 pixels
Display aspect ratio : 16:9
Frame rate : 25.000 fps
Color space : YUV
Chroma subsampling : 4:2:0
Bit depth : 8 bits
Scan type : Progressive
Compression mode : Lossy
Bits/(Pixel*Frame) : 0.211
Stream size : 1.16 GiB (88%)
Writing library : XviD 1.1.2 (UTC 2006-11-01)

Audio
ID : 1
Format : MPEG Audio
Format version : Version 1
Format profile : Layer 3
Mode : Joint stereo
Mode extension : MS Stereo
Codec ID : 55
Codec ID/Hint : MP3
Duration : 1h 51mn
Bit rate mode : Constant
Bit rate : 192 Kbps
Channel(s) : 2 channels
Sampling rate : 48.0 KHz
Compression mode : Lossy
Stream size : 153 MiB (11%)
Alignment : Split accross interleaves
Interleave, duration : 200 ms (5.00 video frames)
Writing library : LAME3.99.5
User avatar
ARTHORIUS
Posts: 3712
Likes:
Joined: Sun Mar 26, 2006 1:00 am

[REQ] Aglaya (2012)

Post by ARTHORIUS »   0 likes

First request here...interesting movie :D

[Image]

http://www.imdb.com/title/tt1527052/

This film is about the relationship of a mother and her daughter, the split-up of their family, the blessing and curse of belonging together and about coming of age - all this from the perspective of the young girl Aglaja. The story is based on real-life events, an Eastern European circus artist family that fled to the West. If they want to stay in the circus business they have to make up an exotic act. The mother spends all their money to buy a very dangerous act: hanging by her hair high up in the dome of the circus while juggling with burning torches. Every night Aglaja is terrified by the fear of losing her mother. But, on some day, she has to follow the family tradition and become the "Woman with the Hair of Steel".

trailer

https://www.youtube.com/watch?v=CpABTEyEKWE


[Image]

I don't have the movie i put the link where i found it...unfortunately i don't have premium account...
the movie is here

http://ex-load.com/hba45jhjigw1
ONE RING TO BRING EM ALL
User avatar
jezevex
Posts: 1584
Likes:
Joined: Sun Jun 05, 2011 1:00 am

Re: [REQ] Aglaya (2012)

Post by jezevex »   0 likes

It's RELeased already :) But under name with "j". And it belongs to Unlisted (Hungary) imho...

https://www.first-loves.net/forums/v ... =26&t=9244
Post Reply