[RREL] Fortress (1985)

User avatar
popdrome
Global Moderator
Posts: 2241
Likes:
Joined: Sat Mar 25, 2006 1:00 am

[RREL] Fortress (1985)

Post by popdrome »   34 likes

Very OT (for me); starring a school class in the Australian wilderness. Some skinny dipping. :)

http://www.imdb.com/title/tt0091069/

Like this post to see ed2k links  [699.44 Mb]
User avatar
kev
Site Admin
Posts: 3536
Likes:
Joined: Tue Jan 17, 2006 1:00 am

Re: [RREL] Fortress (1986)

Post by kev »   11 likes

popdrome wrote:Very OT (for me); starring a school class in the Australian wilderness. Some skinny dipping. :)

http://www.imdb.com/title/tt0091069/

Like this post to see ed2k links  [699.44 Mb]
You know, it's AMAZING the CRAP that gets put out on DVD, while great movies like this seem to be eternally overlooked.

I had this on VHS but my copy got destroyed by mildew; THANKS popdrome, for releasing this!!

Great movie!! :bigups

kev.
SweetSmile
Posts: 7
Likes:
Joined: Tue Jun 20, 2006 1:00 am

Re: [RREL] Fortress (1986)

Post by SweetSmile »   0 likes

Never even heard of this one, but looks interesting enough. I went ahead and started the download. Thanks for the post.
Debaser

Re: [RREL] Fortress (1986)

Post by Debaser »   0 likes

Its a TV-Movie classic.

Thanks for the RREL popdrome
wizardly1
Posts: 87
Likes:
Joined: Sat Apr 01, 2006 1:00 am

Re: [RREL] Fortress (1986)

Post by wizardly1 »   0 likes

I have this movie on VHS. pretty good! it is worth downloading, go get it!

Wiz
kayfabe420
Posts: 1
Likes:
Joined: Wed Jan 31, 2007 1:00 am

Re: [RREL] Fortress (1986)

Post by kayfabe420 »   0 likes

hey i am new here and have tried downloading some of the movies with no luck is there any special file i need for downloading?
Debaser

Re: [RREL] Fortress (1986)

Post by Debaser »   0 likes

Welcome kayfabe420


Please read POSTING FAQ in the posting rules section of the forum.

Here is the link
https://www.first-loves.net/forums/v ... =71&t=7752
Although it probably wont work.

If you already know the basics, then perhaps a few of us just need to reshare this film... I can do that tonight.
User avatar
loverboy
Posts: 1832
Likes:
Joined: Sun Sep 24, 2006 1:00 am

Re: [RREL] Fortress (1986)

Post by loverboy »   48 likes

Good movie this........

I'd earmarked this for an upgrade, in fact I'd gone as far as downloading an mkv from Usenet ages ago but something obviously stopped me from releasing it.........I can't remember but I'll take a guess it's a reluctance in me to release files using the Matroska container when there have historically been problems with some members here viewing them. The file is still available at a.b.hdtv.x264 for those that wish & have currently, 266 days retention.

This is my own standard 2CD size XviD rip, taken from a R1 DVDR posted at CG.

[Image][Image][Image][Image][Image]
[Image][Image][Image][Image][Image]
[Image][Image][Image][Image][Image]

File Name .......: Fortress 1986 isoRip loverboy.avi
File Size .......: 1,398.72 MB
Duration ........: 01:28:22
Video Codec .....: XviD MPEG-4 codec
Video Bitrate ...: 2084 KB/s
Resolution ......: 720 x 416
Aspect Ratio ....: 1.73:1
Framerate .......: 23.976 FPS
Audio Codec .....: MPEG-1 Layer 3 (MP3)
Audio Bitrate ...: 128 KB/s (CBR)
Channels ........: 2 Ch
Language .......: ENGLISH

An excellent example of a 'down under' movie.......If you've not seen it yet, grab it!
Shame the quality's just a bit grainy, but there again this IS nearly 25 years old!

Like this post to see ed2k links  [1.37 Gb]

Enjoy!
User avatar
Phuzzy4242
Site Admin
Posts: 7686
Likes:
Joined: Sun Aug 23, 2009 1:00 am

Re: [RREL] Fortress (1986)

Post by Phuzzy4242 »   0 likes

Excellent, thanks lb! I had this on VHS until one of the kids borrowed it and it got "lost" (grr, a lot of my tapes got "lost" this way). Of course, I downloaded popdrome's tvrip, but a DVD rip is very welcome. The cave scene was "interesting". ;)

Excellent quality rip - much appreciated!
User avatar
Phuzzy4242
Site Admin
Posts: 7686
Likes:
Joined: Sun Aug 23, 2009 1:00 am

Re: [RREL] Fortress (1986)

Post by Phuzzy4242 »   45 likes

Upgrade to 1280x720. Still a little grainy but the best I've seen so far.

[Image] [Image] [Image]
Spoiler:

General
Complete name : E:\MovieShare\Releases\Fortress 1986 Rachel Ward Xvid.avi
Format : AVI
Format/Info : Audio Video Interleave
File size : 1.30 GiB
Duration : 1 h 26 min
Overall bit rate : 2 138 kb/s

Video
ID : 0
Format : MPEG-4 Visual
Format profile : Advanced Simple@L5
Format settings, BVOP : No
Format settings, QPel : No
Format settings, GMC : No warppoints
Format settings, Matrix : Default (H.263)
Codec ID : XVID
Codec ID/Hint : XviD
Duration : 1 h 26 min
Bit rate : 2 001 kb/s
Width : 1 280 pixels
Height : 720 pixels
Display aspect ratio : 16:9
Frame rate : 25.000 FPS
Color space : YUV
Chroma subsampling : 4:2:0
Bit depth : 8 bits
Scan type : Progressive
Compression mode : Lossy
Bits/(Pixel*Frame) : 0.087
Stream size : 1.21 GiB (94%)
Writing library : XviD 62

Audio
ID : 1
Format : MPEG Audio
Format version : Version 1
Format profile : Layer 3
Codec ID : 55
Codec ID/Hint : MP3
Duration : 1 h 26 min
Bit rate mode : Constant
Bit rate : 128 kb/s
Channel(s) : 2 channels
Sampling rate : 44.1 kHz
Compression mode : Lossy
Stream size : 79.6 MiB (6%)
Alignment : Split accross interleaves
Interleave, duration : 40 ms (1.00 video frame)
Like this post to see ed2k links  [1.30 Gb]
Post Reply