[REL] Ginger Meggs (1982)

User avatar
loverboy
Posts: 1832
Likes:
Joined: Sun Sep 24, 2006 1:00 am

[REL] Ginger Meggs (1982)

Postby loverboy » Sun Apr 14, 2013 1:18 am  21 likes

http://www.imdb.com/title/tt0084003/combined

[Image]

The escapades of Ginger Meggs, local larrikin. He's trying to win the heart of Minnie Peters, but the pressures of school, his rival Eddie Coogan and bully Tiger Kelly make life tough for him. Besides, there's fishing to be done!

Ginger Meggs was a comic book character from many yonks back in Australia. It follows the exploits of a young fantapants troublemaker as he pursues the affections of his sweetheart Min while perennially frustrating rival and wannabe bully Tiger Kelly. The movie sets a theme duly respectful of the original comic, with lurid designs and colours and, dare I suggest, a cartoonish approach to events. Of the day, this was one of the finest casts of Aussie actors you'd be likely to get together for the one feature.


[Image][Image][Image][Image][Image][Image]
[Image][Image][Image][Image][Image][Image]

This is a pretty rare movie, never having made it to DVD & with only crispy VHS transfers to work with. This came to me as 2.5gb of something somewhat less than perfect although to be fair, on the original releaser's own admission he hadn't got a clue what he was doing! I've had a play with this, mostly cropping, resizing & de-interlacing to try & arrive at something watchable & although not great it's just about OK.
There is a 10 part YouTube version available but other than slightly less occasional picture distortion the quality is awful, in particular being badly interlaced & with a small resolution.

General
Complete name : Ginger Meggs 1982 VHSRip loverboy.avi
Format : AVI
Format/Info : Audio Video Interleave
File size : 1.47 GiB
Duration : 1h 37mn
Overall bit rate : 2 167 Kbps
Writing application : Lavf55.0.100
Writing library : VirtualDub build 30009/release

Video
ID : 0
Format : xvid
Codec ID : xvid
Duration : 1h 37mn
Bit rate : 1 997 Kbps
Width : 720 pixels
Height : 544 pixels
Display aspect ratio : 4:3
Frame rate : 25.000 fps
Bits/(Pixel*Frame) : 0.204
Stream size : 1.36 GiB (92%)

Audio
ID : 1
Format : MPEG Audio
Format version : Version 1
Format profile : Layer 3
Codec ID : 55
Codec ID/Hint : MP3
Duration : 1h 37mn
Bit rate mode : Constant
Bit rate : 160 Kbps
Channel(s) : 2 channels
Sampling rate : 44.1 KHz
Compression mode : Lossy
Stream size : 111 MiB (7%)
Alignment : Split accross interleaves
Interleave, duration : 40 ms (1.00 video frame)
Interleave, preload duration : 500 ms
Writing library : LAME3.98.4


Like this post to see ed2k links  [1.47 Gb]

lb
User avatar
ptguardian
Posts: 4479
Likes:
Joined: Wed Sep 17, 2008 1:00 am

Re: [REL] Ginger Meggs (1982)

Postby ptguardian » Sun Apr 14, 2013 8:30 am  0 likes

I remember watching this a while back. The characters remind me a bit of the film Popeye with Robin Williams. I am sure the fact this is also based on a comic is why. Girls are cute and the boys are entertaining. Good find LB. :D
User avatar
Pardal2008
Posts: 324
Likes:
Joined: Wed Feb 22, 2012 10:23 pm

Re: [REL] Ginger Meggs (1982)

Postby Pardal2008 » Mon Apr 15, 2013 5:55 pm  1 likes

Thank you loverboy, nice ;)
Pardal
All the little girls are in love only to me

Return to “Australia”

Who is online

Users browsing this forum: No registered users and 3 guests