[REL] Ride A Wild Pony (1975)

User avatar
loverboy
Posts: 1832
Likes:
Joined: Sun Sep 24, 2006 1:00 am

[REL] Ride A Wild Pony (1975)

Postby loverboy » Thu Apr 18, 2013 10:39 pm  15 likes

http://www.imdb.com/title/tt0075141/combined

It might be Disney but it was shot in Australia & with an Australian cast.

[Image][Image]

Set in a small Australian town between world wars, the film follows the battle between two children, Scott, a poor farm boy, and Josie, the handicapped daughter of a wealthy ranch owner, for ownership of a horse that both children love. Scott requires a horse to ride seven miles to school today and his father buys an unbroken pony, which Scott names Taff. Josie yearns to ride again but, being crippled, must settle on the use of a cart and pony. Scott's pony disappears, while a pony is eventually selected for Josie from her father's herd. When Scott sees the horse, which Josie named Bo, performing in the pony and cart competition at the township fair, he recognizes it as his horse and attempts to take it away. The ensuing quarrel affects both the children as well as dividing the town. The children eventually become friends and, while the ownership issue is legally resolved, they agree on a way of sharing the pony between them.

Although based on an Australian story, the film was originally intended to be rewritten to fit an American setting. However, the producer, Jerome Courtland, determined that an Australian background would not detract from the film's potential for success in the US. As a result, the film was not only set in Australia, but employed a largely Australian-based cast. Ride a Wild Pony was filmed in the historic town of Chiltern, Victoria. Several different Welsh mountain ponies were used in the film's production.
Shooting began in October 1974 and mostly took place in the small town of Chiltern near Wodonga in Victoria.


[Image][Image][Image][Image][Image][Image]
[Image][Image][Image][Image][Image][Image]
[Image][Image][Image][Image][Image][Image]
[Image][Image][Image][Image][Image][Image]

General
Complete name : Ride A Wild Pony 1975 isoRip loverboy.mp4
Format : MPEG-4
Format profile : Base Media / Version 2
Codec ID : mp42
File size : 1.37 GiB
Duration : 1h 30mn
Overall bit rate mode : Variable
Overall bit rate : 2 166 Kbps
Encoded date : UTC 2013-04-16 19:12:19
Tagged date : UTC 2013-04-16 19:36:15
Writing application : HandBrake 0.9.8 2012071700

Video
ID : 1
Format : AVC
Format/Info : Advanced Video Codec
Format profile : Main@L3.0
Format settings, CABAC : Yes
Format settings, ReFrames : 4 frames
Codec ID : avc1
Codec ID/Info : Advanced Video Coding
Duration : 1h 30mn
Bit rate mode : Variable
Bit rate : 2 000 Kbps
Width : 720 pixels
Height : 544 pixels
Display aspect ratio : 4:3
Frame rate mode : Variable
Frame rate : 23.976 fps
Minimum frame rate : 19.965 fps
Maximum frame rate : 29.970 fps
Color space : YUV
Chroma subsampling : 4:2:0
Bit depth : 8 bits
Scan type : Progressive
Bits/(Pixel*Frame) : 0.213
Stream size : 1.27 GiB (92%)
Writing library : x264 core 120

Audio
ID : 2
Format : AAC
Format/Info : Advanced Audio Codec
Format profile : LC
Codec ID : 40
Duration : 1h 30mn
Bit rate mode : Variable
Bit rate : 160 Kbps
Maximum bit rate : 241 Kbps
Channel(s) : 2 channels
Channel positions : Front: L R
Sampling rate : 48.0 KHz
Compression mode : Lossy
Delay relative to video : 67ms
Stream size : 104 MiB (7%)
Language : English


Like this post to see ed2k links  [1.37 Gb]

English subs.
Like this post to see ed2k links  [74.8 Kb]

lb

Return to “Australia”

Who is online

Users browsing this forum: No registered users and 1 guest