[REL] Recommendation for Mercy (1975)

Grego
Posts: 34
Likes:
Joined: Wed May 07, 2008 1:00 am

[REL] Recommendation for Mercy (1975)

Postby Grego » Thu Mar 31, 2011 11:44 am  0 likes

FLL
Posts: 2191
Likes:
Joined: Mon Aug 28, 2006 1:00 am

Re: [REQ] Recommendation for Mercy (1975)

Postby FLL » Thu Mar 31, 2011 2:45 pm  0 likes

aka Teenage Psycho Killer

When a teenage girl is found raped and strangled, the chief suspect is a 14-year-old boy who was last seen walking with her through the Canadian wilderness. After he was arrested for the murder, he tries to prove his innocence while the legal system ponders his fate. But could a seemingly angelic youth possibly have committed such a heinous act? Captivating tale inspired by actual events stars Andrew Skidd, Robb Judd, Mike Upmalis. AKA: "Recommendation for Mercy," "Teenage Passion."


Available on DVD, though apparently the film was low budget shot on 16mm so picture isn't as good as a normal DVD
http://shop.tcm.com/product.asp?sku=D70678
http://www.azovfilms.com/proddetail.asp?prod=90148

cg has a vhsrip. Can anyone find a DVDRip?
plonkah
Posts: 371
Likes:
Joined: Fri Jun 27, 2008 1:00 am

Re: [REQ] Recommendation for Mercy (1975)

Postby plonkah » Tue Oct 29, 2013 11:36 pm  0 likes

For those with the bandwidth this is available on the Wildboys site :-

http://thewildboys.flickzone1.info/view ... hp?id=4892
User avatar
yoko
Posts: 631
Likes:
Joined: Sat Aug 27, 2011 3:40 am

Re: [REQ] Recommendation for Mercy (1975)

Postby yoko » Sun Nov 03, 2013 12:15 am  1 likes

Bandwidth doesn't help when all the links are dead :wall
pissedoff143
Posts: 32
Likes:
Joined: Fri Oct 04, 2013 8:45 pm

Re: [REQ] Recommendation for Mercy (1975)

Postby pissedoff143 » Mon Nov 04, 2013 6:01 am  1 likes

I've got that lying around somewhere. I've never uploaded to eMule, so give me a few days.
User avatar
Phuzzy4242
Site Admin
Posts: 6668
Likes:
Joined: Sun Aug 23, 2009 1:00 am

Re: [REQ] Recommendation for Mercy (1975)

Postby Phuzzy4242 » Mon Nov 04, 2013 8:09 am  0 likes

Let us know if you need help getting eMule working right.
pissedoff143
Posts: 32
Likes:
Joined: Fri Oct 04, 2013 8:45 pm

Re: [REQ] Recommendation for Mercy (1975)

Postby pissedoff143 » Mon Nov 04, 2013 4:23 pm  0 likes

I have six hard drives that are 1.8 TB to 3.0 TB and it's on one of them. When i did a search, I didn't find it, but I ran across it a few months back. I got it around 3 years ago, so I have to dig. I'll find it. I have acually never uploaded anything.

Thanks for your response.
Is kMule better and newer than Dream Mule?
User avatar
Phuzzy4242
Site Admin
Posts: 6668
Likes:
Joined: Sun Aug 23, 2009 1:00 am

Re: [REQ] Recommendation for Mercy (1975)

Postby Phuzzy4242 » Mon Nov 04, 2013 5:33 pm  0 likes

I don't know, I've never used kMule, but I didn't like Dream Mule at all. I'm using MorphXT right now, but I've used most of the "major brands" just to see which I liked. I won't try to tell you which is best because that's a matter of opinion. Most people can use the standard eMule with no problem and only try the other flavors when they start releasing and want to tweak uploads.

The primary thing to worry about when uploading is getting HighID. The way ed2k works, if you don't have highid, you can only be found with the help of a server acting as intermediary and that slows everything down to a crawl. With highid, people can find you directly. There's lots of info in the eMule Help/FAQ forum.
flmwayne
Posts: 55
Likes:
Joined: Sat Sep 03, 2011 6:25 am

Re: [REQ] Recommendation for Mercy (1975)

Postby flmwayne » Sat Aug 11, 2018 3:32 pm  1 likes

available on youtube, with a very low resolution.
https://www.youtube.com/watch?v=CS4taDICSYA
User avatar
Phuzzy4242
Site Admin
Posts: 6668
Likes:
Joined: Sun Aug 23, 2009 1:00 am

Re: [REQ] Recommendation for Mercy (1975)

Postby Phuzzy4242 » Sun Aug 12, 2018 12:18 am  17 likes

Thanks flmwayne. Here's the highest res on your YouTube link.
Spoiler:

General
Complete name : E:\MovieShare\Releases\Teenage Passion AKA Recommendation for Mercy (1970s)[SD,640x480].mp4
Format : MPEG-4
Format profile : Base Media
Codec ID : isom (isom/iso2/avc1/mp41)
File size : 339 MiB
Duration : 1 h 23 min
Overall bit rate : 569 kb/s
Writing application : Lavf57.56.100

Video
ID : 1
Format : AVC
Format/Info : Advanced Video Codec
Format profile : Main@L3
Format settings, CABAC : Yes
Format settings, RefFrames : 3 frames
Codec ID : avc1
Codec ID/Info : Advanced Video Coding
Duration : 1 h 23 min
Bit rate : 436 kb/s
Width : 640 pixels
Height : 480 pixels
Display aspect ratio : 4:3
Frame rate mode : Constant
Frame rate : 30.000 FPS
Color space : YUV
Chroma subsampling : 4:2:0
Bit depth : 8 bits
Scan type : Progressive
Bits/(Pixel*Frame) : 0.047
Stream size : 260 MiB (77%)

Audio
ID : 2
Format : AAC
Format/Info : Advanced Audio Codec
Format profile : LC
Codec ID : 40
Duration : 1 h 23 min
Bit rate mode : Constant
Bit rate : 126 kb/s
Channel(s) : 2 channels
Channel positions : Front: L R
Sampling rate : 44.1 kHz
Frame rate : 43.066 FPS (1024 SPF)
Compression mode : Lossy
Stream size : 74.8 MiB (22%)
Default : Yes
Alternate group : 1

Like this post to see ed2k links  [338.99 Mb]

Return to “Canada”

Who is online

Users browsing this forum: No registered users and 0 guests