[REL] I Love You, Om... (2006) [Indonesia]

Rich
Posts: 2821
Likes:
Joined: Sat Feb 21, 2004 1:00 am

[REL] I Love You, Om... (2006) [Indonesia]

Post by Rich »   1 likes

I Love You, Om... (2006)
kev wrote:Whoa!! Another interesting film from 'Denny's Hotspot':

'I Love You, Om...'

[Image]

http://www.imdb.com/title/tt1059932/

Synopsis['s]:
Denny's Hotspot wrote:Because of losing father's figure and lack of attention from her mother, Dion (Rachel Amanda), 12 years old girl grow into an aggressive girl. Trying to search a father's figure Dion falls in love with Gaza (Restu Sinaga), a 35 years old laundry man. Gaza doesn't realize Dion's love until his girlfriend, Nayla betrayed him. Left with a broken heart, Gaza starts to enjoy Dion's attention. Slowly love begins to grow inside Gaza's heart for Dion. But can they overcome the age differences between them?
AND:
Dion (Rachel Amanda) a 12 years old girl falls in love with 32 years old ex-laundry cleaner Gaza (Restu Sinaga). Meanwhile Nayla (Karenina) has a wish to back with Gaza again after getting busted having romance with Laras (Marcha), a ballet teacher.

Starting from the lack of love, Dion finds a ‘guardian angel’ in Gaza. Gaza’s sympathy then gets Dion respons in somewhat extrim way. The little girl suddenly turns ‘grown up’. She starts seeking him, goes to his work place -- a DVD rental, pretends to rent some cartoons. In the other hand, Nayla keeps hunting Gaza.

Back to Dion. The little girl perfectly transforms from an innocent to b!tchy one with all her gestures, cosmetics and dresses. Give Rachel Amanda 2 thumbs up for her acting!

Watching ‘I Love You Om’ could make grown up people goosebump. Is it true that a little girl who’s in love could be this mad? Or, is it true that a grown up man could suddenly go crazy when being loved by a little kid? Dion’s character is so deep, she says, “I love you Om” without any hesitation. She enters a niteclub just to meet his Om, she regularly goes to Om’s place just to buy him chicken noodles. What da hell?!

Eventhough ‘tragic’, this film has so many surprises. And btw, Dion has a secret admirer too….
Seems pretty darn OT in the 'Lolita', 'Little Lips', and 'Mein erstes Wunder' vein... :)

The movie:
http://www.dennyshotspot.com/sinetronpl ... youom.html

Damn, DAMN!!! Wish there was a way to download these movies from this spot!! :think

kev.
Now available on youtube! :cool

http://www.youtube.com/profile?user=ros ... s&query=om

:bigups
User avatar
miih
Posts: 99
Likes:
Joined: Mon May 31, 2010 1:00 am

Re: [REQ] I Love You, Om... (2006)

Post by miih »   0 likes

Hello!
As this movie continues as a request, I would like to second it. I've been searching a lot for this movie, but it's actually very hard to find.
Thank you in advance for helping.
User avatar
Phuzzy4242
Site Admin
Posts: 7686
Likes:
Joined: Sun Aug 23, 2009 1:00 am

Re: [REQ] I Love You, Om... (2006)

Post by Phuzzy4242 »   1 likes

Sorry, the YouTube link is dead and I didn't see it on uloz.to or eMule.
Praveenkumar@83
Posts: 1
Likes:
Joined: Sat Dec 07, 2019 4:41 am

Re: [REQ] I Love You, Om... (2006)

Post by Praveenkumar@83 »   0 likes

Movies
User avatar
Phuzzy4242
Site Admin
Posts: 7686
Likes:
Joined: Sun Aug 23, 2009 1:00 am

Re: [REQ] I Love You, Om... (2006)

Post by Phuzzy4242 »   0 likes

https://www.rarefilmfinder.com/movie.php?id=20169

I still didn't find anything on uloz or eMule, nor a quick web search.
User avatar
miih
Posts: 99
Likes:
Joined: Mon May 31, 2010 1:00 am

Re: [REQ] I Love You, Om... (2006)

Post by miih »   0 likes

It's again on YouTube. The quality is really bad but is the only found by now. I hope something better show up someday.

https://www.youtube.com/watch?v=n3L1NxQNTK0

And this movie is from Indonesia not India.
User avatar
Phuzzy4242
Site Admin
Posts: 7686
Likes:
Joined: Sun Aug 23, 2009 1:00 am

Re: [REL] I Love You, Om... (2006) [Indonesia]

Post by Phuzzy4242 »   27 likes

Spoiler:

General
Complete name : K:\Online\Releases\I Love You Om... (2006).mp4
Format : MPEG-4
Format profile : Base Media / Version 2
Codec ID : mp42 (isom/mp42)
File size : 306 MiB
Duration : 1 h 51 min
Overall bit rate mode : Variable
Overall bit rate : 383 kb/s
Encoded date : UTC 2020-08-09 00:45:56
Tagged date : UTC 2020-08-09 00:45:56

Video
ID : 1
Format : AVC
Format/Info : Advanced Video Codec
Format profile : Baseline@L2.1
Format settings : 3 Ref Frames
Format settings, CABAC : No
Format settings, Reference frames : 3 frames
Codec ID : avc1
Codec ID/Info : Advanced Video Coding
Duration : 1 h 51 min
Bit rate : 285 kb/s
Width : 384 pixels
Height : 288 pixels
Display aspect ratio : 4:3
Frame rate mode : Constant
Frame rate : 25.000 FPS
Color space : YUV
Chroma subsampling : 4:2:0
Bit depth : 8 bits
Scan type : Progressive
Bits/(Pixel*Frame) : 0.103
Stream size : 228 MiB (74%)
Title : ISO Media file produced by Google Inc. Created on: 08/08/2020.
Encoded date : UTC 2020-08-09 00:45:56
Tagged date : UTC 2020-08-09 00:45:56
Color range : Limited
Color primaries : BT.709
Transfer characteristics : BT.709
Matrix coefficients : BT.709
Codec configuration box : avcC

Audio
ID : 2
Format : AAC LC
Format/Info : Advanced Audio Codec Low Complexity
Codec ID : mp4a-40-2
Duration : 1 h 51 min
Bit rate mode : Variable
Bit rate : 96.0 kb/s
Channel(s) : 2 channels
Channel layout : L R
Sampling rate : 44.1 kHz
Frame rate : 43.066 FPS (1024 SPF)
Compression mode : Lossy
Stream size : 76.8 MiB (25%)
Title : ISO Media file produced by Google Inc. Created on: 08/08/2020.
Encoded date : UTC 2020-08-09 00:45:56
Tagged date : UTC 2020-08-09 00:45:56
Like this post to see ed2k links  [306.48 Mb]
User avatar
miih
Posts: 99
Likes:
Joined: Mon May 31, 2010 1:00 am

Re: [REL] I Love You, Om... (2006) [Indonesia]

Post by miih »   0 likes

Every time I open this thread my Avast blocks one connection because of phishing. Is the website where is hosted the poster image. Maybe it's better to edit it.
User avatar
Phuzzy4242
Site Admin
Posts: 7686
Likes:
Joined: Sun Aug 23, 2009 1:00 am

Re: [REL] I Love You, Om... (2006) [Indonesia]

Post by Phuzzy4242 »   1 likes

miih wrote:Every time I open this thread my Avast blocks one connection because of phishing. Is the website where is hosted the poster image. Maybe it's better to edit it.
There were two pix in kev's post. I never saw the second pix - my blocker must have zapped it. I went ahead and put a new pix in at postimage for the movie poster - that should fix any virus problems.
Post Reply