[REL] Meester Kikker (2016)

Goldberger
Posts: 25
Likes:
Joined: Thu May 24, 2018 3:57 pm

[REL] Meester Kikker (2016)

Postby Goldberger » Fri Aug 24, 2018 1:45 am  2 likes

The classroom is astonished when their teacher tells them his big secret: sometimes he turns into a frog. Two kids see it as their task to protect his secret.. and to keep him out of the beak of a stork.

Meester Kikker 2016 1080p BluRay x264-MERLiNA
Bitrate :11327 kb/s| Video Resolution :1920x808| Video Frame-rate :24.00 fps(r)
Audio : dts, 48000 Hz, 5:1 (dut)
File Size : 6.59 GB

[Image]


https://rapidgator.net/file/5239c958d1c ... p.mkv.html
User avatar
Phuzzy4242
Site Admin
Posts: 6751
Likes:
Joined: Sun Aug 23, 2009 1:00 am

Re: [REQ] Meester Kikker (2016)

Postby Phuzzy4242 » Fri Aug 24, 2018 3:25 am  0 likes

Thanks, Goldberger, this looks cute. I moved this to [REQ]uest because films aren't considered [REL]eases until there's an eMule link. I'm sure someone will download this from the DD link you posted and release it on eMule soon, then we can move it back to [REL]ease.
User avatar
Warg
Posts: 431
Likes:
Joined: Tue Jul 12, 2016 11:24 am

Re: [REQ] Meester Kikker (2016)

Postby Warg » Sat Feb 23, 2019 6:55 pm  8 likes

https://www.rarefilmfinder.com/movie.php?id=50008
https://www.imdb.com/title/tt4923200/?ref_=plg_rt_1

DVDrip (720x428*, 25fps, 676 MB): Like this post to see ed2k links  [676.82 Mb]
* I cut the black bars, that's why the format differs from the DVD

The complete DVD you can find here (DVD5, MPEG 2, 720x576 (16:9), 25 fps, 3.55 GB): https://ulozto.net/tam/_BB5nWBv4P2CW
(Source: http://blizzardkid.net/category/family-direct-torrents_ed2k/meester_kikker_2016_niderlandy_dvd5.html?cstart_com=)

I could only find subtitles for 24 fps (Runtime: 01:23:22) but this is 25 fps (Runtime: 01:19:49) ... :(
(e.g. https://ulozto.net/!zH6obuZerNp2/mfg-16-subs-rar if someone has a program to convert them)
User avatar
ghost
Site Admin
Posts: 3627
Likes:
Joined: Sun Mar 07, 2004 1:00 am

Re: [REQ] Meester Kikker (2016)

Postby ghost » Sat Feb 23, 2019 7:51 pm  1 likes

if someone has a program to convert them


It can easily be done with Subtitle Workshop or Subtitle Edit.
User avatar
Warg
Posts: 431
Likes:
Joined: Tue Jul 12, 2016 11:24 am

Re: [REQ] Meester Kikker (2016)

Postby Warg » Sun Feb 24, 2019 10:59 am  5 likes

ghost wrote:
if someone has a program to convert them


It can easily be done with Subtitle Workshop or Subtitle Edit.
Thanks for the hint - I tried with Subtitle Workshop and the result seems to be quite good. But strangely the new file is 4 KB bigger than the original ... :?

Subtitles for 25 fps (Runtime: 01:19:49): Like this post to see ed2k links  [71.8 Kb]
User avatar
kev
Site Admin
Posts: 2990
Likes:
Joined: Tue Jan 17, 2006 1:00 am

Re: [REQ] Meester Kikker (2016)

Postby kev » Sun Feb 24, 2019 10:02 pm  0 likes

Warg wrote:....The complete DVD you can find here (DVD5, MPEG 2, 720x576 (16:9), 25 fps, 3.55 GB): https://ulozto.net/tam/_BB5nWBv4P2CW
(Source: http://blizzardkid.net/category/family-direct-torrents_ed2k/meester_kikker_2016_niderlandy_dvd5.html?cstart_com=)...


Is there a password available for the uloz files?

kev.
User avatar
Warg
Posts: 431
Likes:
Joined: Tue Jul 12, 2016 11:24 am

Re: [REQ] Meester Kikker (2016)

Postby Warg » Mon Feb 25, 2019 11:08 am  0 likes

kev wrote:
Warg wrote:....The complete DVD you can find here (DVD5, MPEG 2, 720x576 (16:9), 25 fps, 3.55 GB): https://ulozto.net/tam/_BB5nWBv4P2CW
(Source: http://blizzardkid.net/category/family-direct-torrents_ed2k/meester_kikker_2016_niderlandy_dvd5.html?cstart_com=)...


Is there a password available for the uloz files?

kev.
My rip is taken from these files - they weren't passworded.
BTW: Inspite of the difference in size the download of the full DVD is probably not really worth a while - except you're collecting hardencoded black bars ... :lol:
User avatar
ghost
Site Admin
Posts: 3627
Likes:
Joined: Sun Mar 07, 2004 1:00 am

Re: [REL] Meester Kikker (2016)

Postby ghost » Mon Feb 25, 2019 2:10 pm  0 likes

Meester Kikker 2016 1080p BluRay x264-MERLiNA
Bitrate :11327 kb/s| Video Resolution :1920x808| Video Frame-rate :24.00 fps(r)
Audio : dts, 48000 Hz, 5:1 (dut)
File Size : 6.59 GB


May I ask you, why do you need a DVD5/DVDRip if you can have it in HD?
User avatar
Warg
Posts: 431
Likes:
Joined: Tue Jul 12, 2016 11:24 am

Re: [REL] Meester Kikker (2016)

Postby Warg » Mon Feb 25, 2019 4:39 pm  0 likes

ghost wrote:
Meester Kikker 2016 1080p BluRay x264-MERLiNA
Bitrate :11327 kb/s| Video Resolution :1920x808| Video Frame-rate :24.00 fps(r)
Audio : dts, 48000 Hz, 5:1 (dut)
File Size : 6.59 GB


May I ask you, why do you need a DVD5/DVDRip if you can have it in HD?
The stress is on the "if" - the Rapidgator link is dead ... :?
User avatar
ghost
Site Admin
Posts: 3627
Likes:
Joined: Sun Mar 07, 2004 1:00 am

Re: [REL] Meester Kikker (2016)

Postby ghost » Mon Feb 25, 2019 9:44 pm  8 likes

No need to be stressed anymore ;)

Here is a rip of the german BluRay. I added a dutch and english audio track:

Like this post to see ed2k links  [2.76 Gb]

Spoiler:

General
Complete name : Hilfe, unser Lehrer ist ein Frosch - Meester Kikker (2016).1080p.5.1.ger-dut-eng.mkv
Format : Matroska
Format version : Version 4
File size : 2.76 GiB
Duration : 1 h 19 min
Overall bit rate mode : Variable
Overall bit rate : 4 969 kb/s
Encoded date : UTC 2019-02-25 20:24:44
Writing application : mkvmerge v31.0.0 ('Dolores In A Shoestand') 64-bit
Writing library : libebml v1.3.6 + libmatroska v1.4.9

Video
ID : 1
Format : AVC
Format/Info : Advanced Video Codec
Format profile : Main@L4.1
Format settings : CABAC / 2 Ref Frames
Format settings, CABAC : Yes
Format settings, ReFrames : 2 frames
Format settings, GOP : M=3, N=25
Codec ID : V_MPEG4/ISO/AVC
Duration : 1 h 19 min
Bit rate mode : Variable
Bit rate : 3 942 kb/s
Maximum bit rate : 14.0 Mb/s
Width : 1 920 pixels
Height : 1 080 pixels
Display aspect ratio : 16:9
Frame rate mode : Constant
Frame rate : 25.000 FPS
Color space : YUV
Chroma subsampling : 4:2:0
Bit depth : 8 bits
Scan type : Progressive
Bits/(Pixel*Frame) : 0.076
Stream size : 2.19 GiB (79%)
Default : Yes
Forced : No

Audio #1
ID : 2
Format : AC-3
Format/Info : Audio Coding 3
Commercial name : Dolby Digital
Codec ID : A_AC3
Duration : 1 h 19 min
Bit rate mode : Constant
Bit rate : 448 kb/s
Channel(s) : 6 channels
Channel layout : L R C LFE Ls Rs
Sampling rate : 48.0 kHz
Frame rate : 31.250 FPS (1536 SPF)
Bit depth : 16 bits
Compression mode : Lossy
Stream size : 255 MiB (9%)
Language : German
Service kind : Complete Main
Default : Yes
Forced : No

Audio #2
ID : 3
Format : AC-3
Format/Info : Audio Coding 3
Commercial name : Dolby Digital
Codec ID : A_AC3
Duration : 1 h 19 min
Bit rate mode : Constant
Bit rate : 448 kb/s
Channel(s) : 6 channels
Channel layout : L R C LFE Ls Rs
Sampling rate : 48.0 kHz
Frame rate : 31.250 FPS (1536 SPF)
Bit depth : 16 bits
Compression mode : Lossy
Stream size : 255 MiB (9%)
Language : Dutch
Service kind : Complete Main
Default : No
Forced : No

Audio #3
ID : 4
Format : AAC LC
Format/Info : Advanced Audio Codec Low Complexity
Codec ID : A_AAC-2
Duration : 1 h 19 min
Bit rate : 128 kb/s
Channel(s) : 2 channels
Channel layout : L R
Sampling rate : 48.0 kHz
Frame rate : 46.875 FPS (1024 SPF)
Compression mode : Lossy
Delay relative to video : 3 ms
Stream size : 72.9 MiB (3%)
Language : English
Default : No
Forced : No


Return to “Netherlands”

Who is online

Users browsing this forum: No registered users and 1 guest