[REL] Past Tense (2006) (TV)

User avatar
emuler
Posts: 4599
Likes:
Joined: Sun Apr 02, 2006 1:00 am

[REL] Past Tense (2006) (TV)

Post by emuler »   0 likes

http://www.imdb.com/title/tt0804518/
Past Tense is a great movie but it's kinda weird and scary. The movie is about a girl name Sara Shay and she has these nightmares about a lady name Penny Romig when shes getting killed. As she has the nightmares she gets cuts somehow. So her mom tries to figure out who killed Penny so Sara stops having those nightmares and thinks she Penny. But little did Sara know for a couple days her dad was murdered the same day for doing his job. Her dad was a detective and he was trying to get the story about Penny and then he got shot by a gun. So who killed Penny? Who killed Sara's dad? Who was the murderer? Well you have to see the movie to figure out.
Just saw this on TV/cable. Spooky movie; cute girl. :thumbsup No special scenes, though, at least not in the version I saw. :(

http://www.imdb.com/gallery/granitz/5153/Events/5153/AlexiaFast_Pimen_10235466_400.jpg.html?path=pgallery&path_key=Fast,%20Alexia
terry666
Posts: 509
Likes:
Joined: Mon Jan 02, 2006 1:00 am

Re: [REL] Past Tense (2006) (TV)

Post by terry666 »   9 likes

Apparently this movie appeared on usenet. Funny no one posted it here...

[Image]
[Image]
[Image]
[Image]


My Rip:
Like this post to see ed2k links  [900.38 Mb]

Another request filled. Enjoy!
User avatar
loverboy
Posts: 1832
Likes:
Joined: Sun Sep 24, 2006 1:00 am

Re: [REL] Past Tense (2006) (TV)

Post by loverboy »   0 likes

Posted by Deadly at thelostmovies on 6th August. It's listed as a VHS rip which means I won't bother retrieving as your satrip should be of better quality.
thanks Terry :) :) :)
User avatar
starfish21
Posts: 3376
Likes:
Joined: Tue May 23, 2006 1:00 am

Re: [REL] Past Tense (2006) (TV)

Post by starfish21 »   6 likes

dvdrip


Format : AVI
Format/Info : Audio Video Interleave
File size : 861 MiB
Duration : 1h 30mn
Overall bit rate : 1 335 Kbps
Writing application : 3GP_Converter051103 www.nurs.or.jp/~calcium FFmpeg2.40b((51<<16)+(6<<8)+0)

Video
ID : 0
Format : MPEG-4 Visual
Format profile : Advanced Simple@L5
Format settings, BVOP : 1
Format settings, QPel : No
Format settings, GMC : No warppoints
Format settings, Matrix : Default (MPEG)
Muxing mode : Packed bitstream
Codec ID : XVID
Codec ID/Hint : XviD
Duration : 1h 30mn
Bit rate : 1 258 Kbps
Width : 704 pixels
Height : 384 pixels
Display aspect ratio : 16:9
Frame rate : 25.000 fps
Color space : YUV
Chroma subsampling : 4:2:0
Bit depth : 8 bits
Scan type : Progressive
Compression mode : Lossy
Bits/(Pixel*Frame) : 0.186
Stream size : 812 MiB (94%)
Writing library : XviD 1.2.0.dev47 (UTC 2006-11-01)

Audio
ID : 1
Format : MPEG Audio
Format version : Version 1
Format profile : Layer 3
Mode : Joint stereo
Mode extension : MS Stereo
Codec ID : 55
Codec ID/Hint : MP3
Duration : 1h 30mn
Bit rate mode : Constant
Bit rate : 64.0 Kbps
Channel(s) : 2 channels
Sampling rate : 48.0 KHz
Compression mode : Lossy
Stream size : 41.3 MiB (5%)
Alignment : Aligned on interleaves
Interleave, duration : 24 ms (0.60 video frame)
Writing library : LAME3.96.1


Like this post to see ed2k links  [861.21 Mb]


thanks to ...[Image].......for links.
User avatar
ghost
Site Admin
Posts: 6730
Likes:
Joined: Sun Mar 07, 2004 1:00 am

Re: [REL] Past Tense (2006) (TV)

Post by ghost »   0 likes

Thanks for the update :)

I almost forgot about this one :(
User avatar
kev
Site Admin
Posts: 3548
Likes:
Joined: Tue Jan 17, 2006 1:00 am

Re: [REL] Past Tense (2006) (TV)

Post by kev »   0 likes

I missed this one the first time completely!

Many thanks for bringing it back to the forefront, starfish.. lol... Gave me something else to spend my $$ on..

It's available on the US eBay site:
http://cgi.ebay.com/Paula-Trickey-PAST- ... 3366505fe5

[Image]

kev.
Post Reply