[REL] The Blue Butterfly (2003)

User avatar
idler
Posts: 1107
Likes:
Joined: Sat Apr 01, 2006 1:00 am

[REL] The Blue Butterfly (2003)

Postby idler » Wed Dec 30, 2009 8:16 pm  5 likes

Credit goes to ESELKULT. For all the people who like the landscape of Costa Rica....

[Image]

IMDb wrote:Based on a true story, The Blue Butterfly tells the story of a terminally ill 10-year-old boy whose dream is to catch the most beautiful butterfly on Earth, the mythic and elusive Blue Morpho. His mother persuades a renowned entomologist to take them on a trip to the jungle to search for the butterfly, leading to an adventure that will transform their lives.

General
Format : AVI Video
Format : MPEG-4 Visual
Format profile : Streaming Video@L1
Format settings, BVOP : Yes
Format settings, QPel : No
Format settings, GMC : No warppoints
Format settings, Matrix : Custom
Codec ID : XVID
Codec ID/Hint : XviD
Duration : 1h 33mn
Bit rate : 2 133 Kbps
Width : 688 pixels
Height : 400 pixels
Display aspect ratio : 16/9
Frame rate : 25.000 fps
Resolution : 24 bits
Colorimetry : 4:2:0
Scan type : Progressive
Bits/(Pixel*Frame) : 0.310
Stream size : 1.40 GiB (70%)
Writing library : XviD 50
Format/Info : Audio Video Interleave
Format profile : OpenDML
File size : 1.99 GiB
Duration : 1h 33mn
Overall bit rate : 3 041 Kbps
Writing application : VirtualDubMod 1.5.4.1 (build 2178/release)
Writing library : VirtualDubMod build 2178/release
IAS1 : Deutsch
IAS2 : English

Audio #1
Format : AC-3
Format/Info : Audio Coding 3
Codec ID : 2000
Duration : 1h 33mn
Bit rate mode : Constant
Bit rate : 448 Kbps
Channel(s) : 6 channels
Channel positions : Front: L C R, Rear: L R, LFE
Sampling rate : 48.0 KHz
Stream size : 301 MiB (15%)
Alignment : Aligned on interleaves
Interleave, duration : 96 ms (2.40 video frames)
Interleave, preload duration : 96 ms
Audio #2
Format : AC-3
Format/Info : Audio Coding 3
Codec ID : 2000
Duration : 1h 33mn
Bit rate mode : Constant
Bit rate : 448 Kbps
Channel(s) : 6 channels
Channel positions : Front: L C R, Rear: L R, LFE
Sampling rate : 48.0 KHz
Stream size : 301 MiB (15%)
Alignment : Aligned on interleaves
Interleave, duration : 96 ms (2.40 video frames)
Interleave, preload duration : 96 ms



[Image] [Image]

Like this post to see ed2k links  [1.99 Gb]

:icon_givebeer

http://www.imdb.com/title/tt0313300/
User avatar
emuler
Posts: 4104
Likes:
Joined: Sun Apr 02, 2006 1:00 am

Re: [REL] The Blue Butterfly (2003)

Postby emuler » Wed Dec 30, 2009 9:04 pm  0 likes

Thanks. Looks interesting. :)
User avatar
kev
Site Admin
Posts: 2990
Likes:
Joined: Tue Jan 17, 2006 1:00 am

Re: [REL] The Blue Butterfly (2003)

Postby kev » Thu Dec 31, 2009 12:38 am  0 likes

Yikes! :eyecrazy

Many thanks, idler: She's cute!!

[Image]

I can't tell you how many times I've passed this movie over at the video shop.. SHE'S worth checking out even if only for a few mins of screen time... :heart

Thanks again idler. Can't wait to check this one out...

kev.
User avatar
ptguardian
Posts: 4479
Likes:
Joined: Wed Sep 17, 2008 1:00 am

Re: [REL] The Blue Butterfly (2003)

Postby ptguardian » Sat Jan 16, 2010 10:53 am  0 likes

i too have passed this over. i will check it out.

thanks idler

:)

Return to “Canada”

Who is online

Users browsing this forum: No registered users and 1 guest