[REL] Bear With Me (2005)

User avatar
starfish21
Posts: 3376
Likes:
Joined: Tue May 23, 2006 1:00 am

[REL] Bear With Me (2005)

Post by starfish21 »   0 likes

i'd like to save myself the hassle of releasing something already here,i've searched for this and can't find it,but it's very familiar,maybe someone else can find it here.

http://www.imdb.com/title/tt0228054/

[Image]
User avatar
Phuzzy4242
Site Admin
Posts: 7686
Likes:
Joined: Sun Aug 23, 2009 1:00 am

Re: is this already here?

Post by Phuzzy4242 »   0 likes

IMDb says Canada and I know it isn't in there. I honestly don't recall seeing this here but I'm old and can't remember what I had for dinner yesterday. :)
User avatar
kev
Site Admin
Posts: 3536
Likes:
Joined: Tue Jan 17, 2006 1:00 am

Re: is this already here?

Post by kev »   0 likes

Not sure... But it should be..

Very well done sequel to 'Ms. Bear'. (Which I don't know if THAT one is here either, but being the first part of this series, it might be a good idea to get it...)

Ms. Bear was a tad goofy, full of improbable situations... Bear With Me is a bit more serious and unbelievably more believable... A great 'wilderness survival' family film.

At this point it's worth releasing purely because you have tremendous sharing capabilities and I'm sure most of our incoming members will not have heard of this very cool film...

kev.
User avatar
Phuzzy4242
Site Admin
Posts: 7686
Likes:
Joined: Sun Aug 23, 2009 1:00 am

Re: is this already here?

Post by Phuzzy4242 »   0 likes

Advanced Search found 108 hits for the word "bear" and neither Ms. Bear nor Bear With Me showed up. I'd say it's a better than even chance it hasn't been released on FLM, so go for it if you want!
User avatar
starfish21
Posts: 3376
Likes:
Joined: Tue May 23, 2006 1:00 am

[REL] Bear With Me (2005)

Post by starfish21 »   11 likes

http://www.imdb.com/title/tt0228054/



General
Complete name :bear With Me xvid.avi
Format : AVI
Format/Info : Audio Video Interleave
File size : 698 MiB
Duration : 1h 41mn
Overall bit rate : 964 Kbps
Writing application : VirtualDubMod 1.5.10.2 (build 2540/release)
Writing library : VirtualDubMod build 2540/release

Video
ID : 0
Format : MPEG-4 Visual
Format profile : Advanced Simple@L5
Format settings, BVOP : 2
Format settings, QPel : No
Format settings, GMC : No warppoints
Format settings, Matrix : Default (H.263)
Muxing mode : Packed bitstream
Codec ID : XVID
Codec ID/Hint : XviD
Duration : 1h 41mn
Bit rate : 823 Kbps
Width : 416 pixels
Height : 304 pixels
Display aspect ratio : 4:3
Frame rate : 29.970 fps
Color space : YUV
Chroma subsampling : 4:2:0
Bit depth : 8 bits
Scan type : Interlaced
Scan order : Top Field First
Compression mode : Lossy
Bits/(Pixel*Frame) : 0.217
Stream size : 596 MiB (85%)
Writing library : XviD 1.2.0.dev45 (UTC 2006-07-10)

Audio
ID : 1
Format : MPEG Audio
Format version : Version 1
Format profile : Layer 3
Mode : Joint stereo
Mode extension : MS Stereo
Codec ID : 55
Codec ID/Hint : MP3
Duration : 1h 41mn
Bit rate mode : Variable
Bit rate : 128 Kbps
Channel(s) : 2 channels
Sampling rate : 48.0 KHz
Compression mode : Lossy
Stream size : 92.1 MiB (13%)
Alignment : Aligned on interleaves
Interleave, duration : 24 ms (0.72 video frame)
Interleave, preload duration : 494 ms
Writing library : LAME3.90.
Encoding settings : -m j -V 4 -q 2 -lowpass 17.6 --abr 128


[Image]

[Image]

[Image]

[Image]

[Image]

[Image]

[Image]

[Image]

[Image]

[Image]





Like this post to see ed2k links  [697.91 Mb]
User avatar
mimzy
Posts: 1252
Likes:
Joined: Fri Aug 12, 2011 7:00 am

Re: is this already here?

Post by mimzy »   1 likes

Thanks a lot for releasing :icon_1dancingban

Note that "FLM Search" is usually much better than "Advanced Search" (those two use completely different search engines). "FLM Search" does not have all the options, but it automagically sorts the results by relevance. (It is also possible to search for phrases using quotes.)

Index of "FLM Search" is updated hourly, so very new threads won't show up.
User avatar
kev
Site Admin
Posts: 3536
Likes:
Joined: Tue Jan 17, 2006 1:00 am

Re: [REL]bear With Me(2005)

Post by kev »   0 likes

Perfection!!!

My usual 'many thanks' go out to you, starfish!! :bigups

I hope others find this as enjoyable as I did.. :heart

Now we need to get the first part of this series, 'Ms. Bear' here..

Great family [REL]!! Thanks again, starfish.

kev.
User avatar
starfish21
Posts: 3376
Likes:
Joined: Tue May 23, 2006 1:00 am

Re: [REL]bear With Me(2005)

Post by starfish21 »   0 likes

kev wrote: Now we need to get the first part of this series, 'Ms. Bear' here..
i looked for this in all my usual places,the only one i found(if it was genuine) was a passworded version in a.b.movies.
hopefully someone else might have some success searching.
User avatar
starfish21
Posts: 3376
Likes:
Joined: Tue May 23, 2006 1:00 am

Re: is this already here?

Post by starfish21 »   0 likes

this is a handy section,i'll use this again.
[Image]
User avatar
ptguardian
Posts: 4479
Likes:
Joined: Wed Sep 17, 2008 1:00 am

Re: [REL]bear With Me(2005)

Post by ptguardian »   0 likes

I have the dvd on this. Good little film and I also have the vhs of Ms. Bear if wanted.
Post Reply