[REL] First Position (2011) [USA]

Any documentaries about children can go here.
User avatar
For An Angel
Posts: 655
Likes:
Joined: Sat Jan 02, 2010 1:00 am

[REL] First Position (2011) [USA]

Postby For An Angel » Sat Oct 20, 2012 3:11 pm  17 likes

http://www.imdb.com/title/tt2008513/
http://www.balletdocumentary.com/

[Image]
Every year, thousands of aspiring dancers enter one of the world's most prestigious ballet competitions, the Youth America Grand Prix, where lifelong dreams are at stake. In the final round, with hundreds competing for only a handful of elite scholarships and contracts, practice and discipline are paramount, and nothing short of perfection is expected. Bess Kargman's award-winning documentary, First Position, follows six young dancers as they prepare for a chance to enter the world of professional ballet, struggling through bloodied feet, near exhaustion and debilitating injuries, all while navigating the drama of adolescence. A showcase of awe-inspiring talent, tenacity and passion, First Position paints a thrilling and moving portrait of the most gifted young ballet stars of tomorrow.

[Image][Image][Image][Image][Image][Image]

[Image][Image][Image][Image][Image][Image]

[Image][Image][Image][Image][Image][Image]

[Image][Image][Image][Image][Image][Image]



Like this post to see ed2k links  [1.45 Gb]
Spoiler:

Specs:

Format : MPEG-4
Format profile : 3GPP Media Release 4
Codec ID : 3gp4
File size : 1.45 GiB
Duration : 1h 34mn
Overall bit rate mode : Variable
Overall bit rate : 2 192 Kbps
Encoded date : UTC 2012-07-18 05:50:20
Tagged date : UTC 2012-07-18 05:50:20

Video
ID : 1
Format : AVC
Format/Info : Advanced Video Codec
Format profile : Main@L4.0
Format settings, CABAC : Yes
Format settings, ReFrames : 1 frame
Format settings, GOP : M=1, N=32
Codec ID : avc1
Codec ID/Info : Advanced Video Coding
Duration : 1h 34mn
Bit rate mode : Variable
Bit rate : 1 993 Kbps
Maximum bit rate : 20.0 Mbps
Width : 1 088 pixels
Height : 608 pixels
Display aspect ratio : 16:9
Frame rate mode : Constant
Frame rate : 29.970 fps
Color space : YUV
Chroma subsampling : 4:2:0
Bit depth : 8 bits
Scan type : Progressive
Bits/(Pixel*Frame) : 0.101
Stream size : 1.32 GiB (91%)
Language : English
Encoded date : UTC 2012-07-18 05:50:20
Tagged date : UTC 2012-07-18 05:50:20

Audio
ID : 2
Format : AAC
Format/Info : Advanced Audio Codec
Format profile : LC
Codec ID : 40
Duration : 1h 34mn
Bit rate mode : Constant
Bit rate : 192 Kbps
Channel(s) : 2 channels
Channel positions : Front: L R
Sampling rate : 48.0 KHz
Compression mode : Lossy
Stream size : 128 MiB (9%)

Last edited by For An Angel on Sat Oct 20, 2012 11:38 pm, edited 1 time in total.
User avatar
kev
Site Admin
Posts: 2965
Likes:
Joined: Tue Jan 17, 2006 1:00 am

Re: [REL] First Position (2011) [USA]

Postby kev » Sat Oct 20, 2012 9:47 pm  0 likes

Great discovery, FAA!! I've been in love with ballet docu's since 'The Children of Theater Street' [ viewtopic.php?f=21&t=3832&hilit=the+children+of+theater+street ].

Looking forward to this d/load! Many thanks!! :thumbsup

kev.
User avatar
ptguardian
Posts: 4479
Likes:
Joined: Wed Sep 17, 2008 1:00 am

Re: [REL] First Position (2011) [USA]

Postby ptguardian » Sun Oct 21, 2012 5:16 am  0 likes

Looks cool, thanks. :D
User avatar
vidman49
Posts: 398
Likes:
Joined: Sat Feb 05, 2011 1:00 am

Re: [REL] First Position (2011) [USA]

Postby vidman49 » Mon Oct 22, 2012 12:56 pm  0 likes

Since my main job is producing documentaries, I watch a lot of them. Thanks FAA, this combines two of my loves in in download!!!!

Return to “Documentaries”

Who is online

Users browsing this forum: No registered users and 1 guest