[REL] Capital Visit (1955) [UK]

Any documentaries about children can go here.
User avatar
loverboy
Posts: 1832
Likes:
Joined: Sun Sep 24, 2006 1:00 am

[REL] Capital Visit (1955) [UK]

Postby loverboy » Tue Jun 11, 2013 9:01 pm  12 likes

http://www.imdb.com/title/tt1742635/combined

Taken from the BFI 'The British Transport Films Collection', an 18 disc box set featuring UK transport films from the 50s, 60s, 70s & 80s.

A party of schoolchildren visit London to spend three crowded days in the capital. The adventure starts with a railway journey, and once in London new impressions are collected thick and fast - the streets, the parks, the museums, the shops, the hotel which becomes their temporary home, the Changing of the Guard, St Paul's, the Tower of London - and, at night, the crowded pavements and the bright lights. There is time to visit London Airport and Windsor Castle and to travel by river launch to Greenwich and the Pool.

[Image][Image][Image][Image][Image][Image]
[Image][Image][Image][Image][Image][Image]
[Image][Image][Image][Image][Image][Image]
[Image][Image][Image][Image][Image][Image]

General
Complete name : BFI Capital Visit 1955 DVDRip loverboy.mp4
Format : MPEG-4
Format profile : Base Media / Version 2
Codec ID : mp42
File size : 314 MiB
Duration : 20mn 26s
Overall bit rate mode : Variable
Overall bit rate : 2 145 Kbps
Writing application : HandBrake 0.9.8 2012071700

Video
ID : 1
Format : AVC
Format/Info : Advanced Video Codec
Format profile : Main@L3.0
Format settings, CABAC : Yes
Format settings, ReFrames : 4 frames
Codec ID : avc1
Codec ID/Info : Advanced Video Coding
Duration : 20mn 25s
Bit rate mode : Variable
Bit rate : 2 000 Kbps
Width : 720 pixels
Height : 544 pixels
Display aspect ratio : 4:3
Frame rate mode : Variable
Frame rate : 25.000 fps
Minimum frame rate : 16.722 fps
Maximum frame rate : 25.000 fps
Color space : YUV
Chroma subsampling : 4:2:0
Bit depth : 8 bits
Scan type : Progressive
Bits/(Pixel*Frame) : 0.204
Stream size : 290 MiB (92%)
Writing library : x264 core 120

Audio
ID : 2
Format : AAC
Format/Info : Advanced Audio Codec
Format profile : LC
Codec ID : 40
Duration : 20mn 26s
Bit rate mode : Variable
Bit rate : 160 Kbps
Maximum bit rate : 206 Kbps
Channel(s) : 2 channels
Channel positions : Front: L R
Sampling rate : 48.0 KHz
Compression mode : Lossy
Delay relative to video : 80ms
Stream size : 23.4 MiB (7%)
Language : English


There should be more suitable material from this set but it's going to take some time to wade through 18 DVD's!

Like this post to see ed2k links  [313.53 Mb]

lb

Return to “Documentaries”

Who is online

Users browsing this forum: No registered users and 1 guest