[REL] Girl Rising (2013)

Any documentaries about children can go here.
User avatar
For An Angel
Posts: 656
Likes:
Joined: Sat Jan 02, 2010 1:00 am

[REL] Girl Rising (2013)

Post by For An Angel »   20 likes

http://www.imdb.com/title/tt2444946/
http://girlrising.com/

[Image]

Features an all-star cast of A-list actresses (including FLM favorite Chloe Grace Moretz) narrating each of the stories.
The movie tells the stories of nine girls from different parts of the world who face arranged marriages, child slavery, and other heartbreaking injustices. Despite these obstacles, the brave girls offer hope and inspiration. By getting an education, they're able to break barriers and create change.

[Image]
Like this post to see ed2k links  [1.64 Gb]
Like this post to see ed2k links  [560.4 Kb]
Like this post to see ed2k links  [50.95 Mb]
Spoiler:

General
Unique ID : 299471877144991561696837514073199461994 (0xE14C2F817C3F2B2C63FDBA60AEF1C66A)
Complete name : C:\Users\For An Angel\Downloads\Girl Rising\Girl.Rising.2013.DOCU.DVDRip.x264-NoRBiT.mkv
Format : Matroska
Format version : Version 2
File size : 1.64 GiB
Duration : 1h 44mn
Overall bit rate : 2 240 Kbps
Writing application : HandBrake 0.9.8
Writing library : libmkv 0.6.5

Video
ID : 1
Format : AVC
Format/Info : Advanced Video Codec
Format profile : High@L3.1
Format settings, CABAC : Yes
Format settings, ReFrames : 9 frames
Codec ID : V_MPEG4/ISO/AVC
Duration : 1h 44mn
Bit rate : 1 800 Kbps
Width : 720 pixels
Height : 400 pixels
Display aspect ratio : 16:9
Frame rate : 23.976 fps
Color space : YUV
Chroma subsampling : 4:2:0
Bit depth : 8 bits
Scan type : Progressive
Bits/(Pixel*Frame) : 0.261
Stream size : 1.32 GiB (81%)
Writing library : x264 core 120
Encoding settings : cabac=1 / ref=9 / deblock=1:-2:-2 / analyse=0x3:0x113 / me=umh / subme=9 / psy=1 / psy_rd=1.00:0.00 / mixed_ref=1 / me_range=24 / chroma_me=1 / trellis=2 / 8x8dct=1 / cqm=0 / deadzone=21,11 / fast_pskip=1 / chroma_qp_offset=-2 / threads=6 / sliced_threads=0 / nr=0 / decimate=1 / interlaced=0 / bluray_compat=0 / constrained_intra=0 / bframes=6 / b_pyramid=2 / b_adapt=2 / b_bias=0 / direct=3 / weightb=1 / open_gop=0 / weightp=2 / keyint=240 / keyint_min=24 / scenecut=40 / intra_refresh=0 / rc_lookahead=60 / rc=2pass / mbtree=1 / bitrate=1800 / ratetol=1.0 / qcomp=0.60 / qpmin=3 / qpmax=69 / qpstep=4 / cplxblur=20.0 / qblur=0.5 / ip_ratio=1.40 / aq=1:1.00
Language : English
Default : Yes
Forced : No
Color primaries : BT.601-6 525, BT.1358 525, BT.1700 NTSC, SMPTE 170M
Transfer characteristics : BT.709-5, BT.1361
Matrix coefficients : BT.601-6 525, BT.1358 525, BT.1700 NTSC, SMPTE 170M

Audio
ID : 2
Format : AC-3
Format/Info : Audio Coding 3
Mode extension : CM (complete main)
Format settings, Endianness : Big
Codec ID : A_AC3
Duration : 1h 44mn
Bit rate mode : Constant
Bit rate : 384 Kbps
Channel(s) : 6 channels
Channel positions : Front: L C R, Side: L R, LFE
Sampling rate : 48.0 KHz
Bit depth : 16 bits
Compression mode : Lossy
Stream size : 288 MiB (17%)
Language : English
Default : Yes
Forced : No

Text #1
ID : 3
Format : VobSub
Codec ID : S_VOBSUB
Codec ID/Info : The same subtitle format used on DVDs
Language : English
Default : No
Forced : No

Text #2
ID : 4
Format : VobSub
Codec ID : S_VOBSUB
Codec ID/Info : The same subtitle format used on DVDs
Language : English
Default : No
Forced : No

Text #3
ID : 5
Format : VobSub
Codec ID : S_VOBSUB
Codec ID/Info : The same subtitle format used on DVDs
Language : French
Default : No
Forced : No

Text #4
ID : 6
Format : VobSub
Codec ID : S_VOBSUB
Codec ID/Info : The same subtitle format used on DVDs
Language : German
Default : No
Forced : No

Text #5
ID : 7
Format : VobSub
Codec ID : S_VOBSUB
Codec ID/Info : The same subtitle format used on DVDs
Language : Spanish
Default : No
Forced : No

Text #6
ID : 8
Format : VobSub
Codec ID : S_VOBSUB
Codec ID/Info : The same subtitle format used on DVDs
Language : Portuguese
Default : No
Forced : No

Text #7
ID : 9
Format : VobSub
Codec ID : S_VOBSUB
Codec ID/Info : The same subtitle format used on DVDs
Language : Chinese
Default : No
Forced : No

Text #8
ID : 10
Format : VobSub
Codec ID : S_VOBSUB
Codec ID/Info : The same subtitle format used on DVDs
Language : Chinese
Default : No
Forced : No

Text #9
ID : 11
Format : VobSub
Codec ID : S_VOBSUB
Codec ID/Info : The same subtitle format used on DVDs
Default : No
Forced : No

Text #10
ID : 12
Format : VobSub
Codec ID : S_VOBSUB
Codec ID/Info : The same subtitle format used on DVDs
Language : Arabic
Default : No
Forced : No

Text #11
ID : 13
Format : VobSub
Codec ID : S_VOBSUB
Codec ID/Info : The same subtitle format used on DVDs
Language : Hindi
Default : No
Forced : No

Menu
00:00:00.000 : Chapter 1
00:01:21.039 : Chapter 2
00:05:49.807 : Chapter 3
00:07:55.558 : Chapter 4
00:19:56.403 : Chapter 5
00:20:42.491 : Chapter 6
00:30:43.466 : Chapter 7
00:32:04.047 : Chapter 8
00:40:57.621 : Chapter 9
00:42:20.037 : Chapter 10
00:51:51.733 : Chapter 11
00:53:04.639 : Chapter 12
01:06:06.087 : Chapter 13
01:07:06.355 : Chapter 14
01:18:37.462 : Chapter 15
01:19:32.976 : Chapter 16
01:26:45.533 : Chapter 17
01:27:24.530 : Chapter 18
01:36:56.685 : Chapter 19
01:37:58.080 : Chapter 20
User avatar
kev
Site Admin
Posts: 3536
Likes:
Joined: Tue Jan 17, 2006 1:00 am

Re: [REL] Girl Rising (2013)

Post by kev »   1 likes

Wow!! Many thanks FAA, for bringing this to FLM!

Can't believe that this docu flew under the radar until now.. :eyecrazy

Nice find, FAA. Thanks again. :thumbsup

kev.
User avatar
Phuzzy4242
Site Admin
Posts: 7686
Likes:
Joined: Sun Aug 23, 2009 1:00 am

Re: [REL] Girl Rising (2013)

Post by Phuzzy4242 »   0 likes

Woot!
Post Reply