[REL] Zoo (2005)

User avatar
idler
Posts: 1107
Likes:
Joined: Sat Apr 01, 2006 1:00 am

[REL] Zoo (2005)

Postby idler » Sat Jun 06, 2009 11:10 pm  4 likes

And now to something completely different...

5 episodes of 5 young Japanese directors:
http://www.imdb.com/title/tt1014693/ful ... #directors

4 totally contradicting commentaries in IMDb:
http://www.imdb.com/title/tt1014693/usercomments

1 episode designed to attract Debaser:

[Image] [Image]

Format : AVI
Format/Info : Audio Video Interleave
File size : 1.37 GiB
Duration : 1h 59mn
Overall bit rate : 1 632 Kbps
Writing application : VirtualDubMod 1.5.4.1 (build 2178/release)
Writing library : VirtualDubMod build 2178/release
IAS1 : Japanese

Video
Format : MPEG-4 Visual
Format profile : Streaming Video@L1
Format settings, BVOP : Yes
Format settings, QPel : No
Format settings, GMC : No warppoints
Format settings, Matrix : Custom
Codec ID : XVID
Codec ID/Hint : XviD
Duration : 1h 59mn
Bit rate : 1 389 Kbps
Width : 688 pixels
Height : 384 pixels
Display aspect ratio : 16/9
Frame rate : 23.976 fps
Resolution : 24 bits
Colorimetry : 4:2:0
Scan type : Progressive
Bits/(Pixel*Frame) : 0.219
Stream size : 1.16 GiB (85%)
Writing library : XviD 0039 build=2005.09.25 (UTC 2005-09-25)

Audio
Format : MPEG Audio
Format version : Version 1
Format profile : Layer 3
Codec ID : 55
Codec ID/Hint : MP3
Duration : 1h 59mn
Bit rate mode : Variable
Bit rate : 231 Kbps
Minimum bit rate : 224 Kbps
Channel(s) : 2 channels
Sampling rate : 48.0 KHz
Resolution : 16 bits
Stream size : 198 MiB (14%)
Alignment : Aligned on interleaves
Interleave, duration : 24 ms (0.58 video frame)
Interleave, preload duration : 79 ms
Writing library : LAME3.96r
Encoding settings : ABR


Like this post to see ed2k links  [1.37 Gb]

Horror? Art? Dunno. Not my rip. Set to "release".
:icon_givebeer
User avatar
ARTHORIUS
Posts: 3709
Likes:
Joined: Sun Mar 26, 2006 1:00 am

Re: [REL] Zoo (2005)

Postby ARTHORIUS » Sat Apr 09, 2011 1:15 pm  0 likes

Anyone have more info?

Return to “Japan”

Who is online

Users browsing this forum: No registered users and 1 guest