[REL] Certi bambini (2004)

gueteke
Posts: 15
Likes:
Joined: Sun Dec 24, 2023 5:15 pm

Re: [REL] Certi bambini (2004)

Post by gueteke »   0 likes

brazil portuguese
David32441
Posts: 788
Likes:
Joined: Thu Jul 22, 2021 2:48 am

Re: [REL] Certi bambini (2004)

Post by David32441 »   0 likes

Anyone have the actual DVD of this? The 1.35gb shared is of tiny resolution!
User avatar
Night457
Global Moderator
Posts: 5082
Likes:
Joined: Sat Dec 28, 2019 3:44 pm

Re: [REL] Certi bambini (2004)

Post by Night457 »   2 likes

David32441 wrote: Sun Feb 25, 2024 2:29 pm Anyone have the actual DVD of this? The 1.35gb shared is of tiny resolution!
I don't actually HAVE anything, but wouldn't you prefer a 1080p file?

Well too bad, the Seeders are DEAD! They are all DEAD!
https://btdig.com/7fbeba97ec3c74cc20d99 ... 004)-1080p
https://rutracker.org/forum/viewtopic.php?t=5980234
https://btmulu.cyou/hash/022c8a7cf46580 ... a0cc2.html
https://yts.mx/movies/a-childrens-story-2004

For the DVD9, the blizzardkid ulozto links have been MURDERED! They are DEAD!
http://blizzardkid.net/category/drama-d ... start_com=

BUT GOOD NEWS! This DVD9 torrent is alive! It's alive, it's ALIVE!
https://btdig.com/search?q=certi+bambin ... 04%29+dvd9

I see two Seeders for it anyway, a few kbps anyway. I will try all 5 torrents for awhile to see if Seeders return. I have seen torrents go from Zero Sources to briskly downloading many times, so you might be in luck.

720p Italian, streaming: https://vk.com/video704429349_456239432

OR better still, I will check the.nextthing.club. Does it surprise you that they have live links?

https://the.nextthing.club/showthread.p ... bini+certi

1080p 5.70Gb WEB-DL Italian Audio, Subtitles in Russian English French, specifications:
Spoiler:

General
Complete name : \Certi.Bambini.2004.1080p.WEB-DL.DDP2.0.H.264-SbR.mkv
Format : Matroska
Format version : Version 4
File size : 5.70 GiB
Duration : 1 h 35 min
Overall bit rate mode : Variable
Overall bit rate : 8 583 kb/s
Encoded date : UTC 2018-02-23 13:54:10
Writing application : mkvmerge v20.0.0 ('I Am The Sun') 64-bit
Writing library : libebml v1.3.5 + libmatroska v1.4.8

Video
ID : 1
Format : AVC
Format/Info : Advanced Video Codec
Format profile : High@L4
Format settings : CABAC / 4 Ref Frames
Format settings, CABAC : Yes
Format settings, Reference frames : 4 frames
Codec ID : V_MPEG4/ISO/AVC
Duration : 1 h 35 min
Bit rate mode : Variable
Bit rate : 8 356 kb/s
Maximum bit rate : 15.0 Mb/s
Width : 1 920 pixels
Height : 1 080 pixels
Display aspect ratio : 16:9
Frame rate mode : Constant
Frame rate : 29.970 (30000/1001) FPS
Color space : YUV
Chroma subsampling : 4:2:0
Bit depth : 8 bits
Scan type : Progressive
Bits/(Pixel*Frame) : 0.134
Stream size : 5.55 GiB (97%)
Language : Italian
Default : Yes
Forced : No
Color range : Limited
Color primaries : BT.709
Transfer characteristics : BT.709
Matrix coefficients : BT.709

Audio
ID : 2
Format : E-AC-3
Format/Info : Enhanced AC-3
Commercial name : Dolby Digital Plus
Codec ID : A_EAC3
Duration : 1 h 35 min
Bit rate mode : Constant
Bit rate : 224 kb/s
Channel(s) : 2 channels
Channel layout : L R
Sampling rate : 48.0 kHz
Frame rate : 31.250 FPS (1536 SPF)
Compression mode : Lossy
Stream size : 152 MiB (3%)
Language : Italian
Service kind : Complete Main
Default : Yes
Forced : No

Text #1
ID : 3
Format : ASS
Codec ID : S_TEXT/ASS
Codec ID/Info : Advanced Sub Station Alpha
Duration : 1 h 30 min
Bit rate : 93 b/s
Count of elements : 674
Compression mode : Lossless
Stream size : 62.5 KiB (0%)
Title : ASS
Language : Russian
Default : No
Forced : No

Text #2
ID : 4
Format : UTF-8
Codec ID : S_TEXT/UTF8
Codec ID/Info : UTF-8 Plain Text
Duration : 1 h 30 min
Bit rate : 72 b/s
Count of elements : 674
Stream size : 48.0 KiB (0%)
Language : Russian
Default : No
Forced : No

Text #3
ID : 5
Format : UTF-8
Codec ID : S_TEXT/UTF8
Codec ID/Info : UTF-8 Plain Text
Duration : 1 h 28 min
Bit rate : 38 b/s
Count of elements : 877
Stream size : 24.7 KiB (0%)
Language : English
Default : No
Forced : No

Text #4
ID : 6
Format : UTF-8
Codec ID : S_TEXT/UTF8
Codec ID/Info : UTF-8 Plain Text
Duration : 1 h 28 min
Bit rate : 43 b/s
Count of elements : 882
Stream size : 27.8 KiB (0%)
Language : French
Default : No
Forced : No
Live direct-download links:

Code: Select all

https://filehorst.de/d/eDdmcAaj
https://filehorst.de/d/evIIsnlE
https://filehorst.de/d/egsIxIFw
https://filehorst.de/d/eIfutyly
https://filehorst.de/d/emdctcBa
https://filehorst.de/d/ebiypovz
https://filehorst.de/d/eyxCgBzh
https://filehorst.de/d/evIxHvmE
Extraction Password:

Code: Select all

The_Next_Pine
Thank you MrPine!

I hope this 1080p file will be good enough because the DVD9 they had is DEAD! DEAD! DEAD! Maybe you specifically wanted DVD bonus features, if there were any?

I trust TNT files but I will wait until it is downloaded before I delete the torrents.

[NOTE: I think it is fairly obvious that I composed this post while I was in the process of searching out and trying sources.]
Post Reply