[REQ] Monster AKA Kaibutsu (2023)

Gobi9061
Posts: 68
Likes:
Joined: Wed Sep 29, 2021 5:47 am

[REQ] Monster AKA Kaibutsu (2023)

Post by Gobi9061 »   0 likes

Imdb: https://m.imdb.com/title/tt23736044/

Trailer: https://youtu.be/S3XB1sFhQiA
A mother demands answers from teacher when her son begins acting strangely.
aliceclub
Posts: 112
Likes:
Joined: Mon Oct 04, 2021 1:26 am

Re: [REQ] Monster AKA Kaibutsu (2023)

Post by aliceclub »   0 likes

Now showing in cinemas, waiting to be collected.
User avatar
DreamScape
Posts: 296
Likes:
Joined: Tue Sep 15, 2020 7:06 am

Re: [REQ] Monster AKA Kaibutsu (2023)

Post by DreamScape »   4 likes

I wont be posting this on eMule but anyone else is welcome to

怪物
Monster

[Image]

A suburban town with a large lake. A single mother who loves her son, a school teacher who cares about her students, and innocent children lead a peaceful life. One day, a fight breaks out at school. It looked like a common fight between children, but their claims differed, and it gradually developed into a big deal involving society and the media. Then one stormy morning, the children suddenly disappear.

https://www.imdb.com/title/tt23736044/

[Image]
Spoiler:

[Image] [Image] [Image] [Image] [Image] [Image] [Image] [Image] [Image] [Image] [Image] [Image]

Code: Select all

General
Unique ID                                : 19520692486562728489542587878635737576 (0xEAF8C7253EE3E21FC8CFDA9BC8811E8)
Complete name                            : Kaibutsu.2023.1080p.MUBI.WEB-DL.AAC2.0.x264-RHRN.mkv
Format                                   : Matroska
Format version                           : Version 4
File size                                : 4.52 GiB
Duration                                 : 2 h 1 min
Overall bit rate                         : 5 334 kb/s
Frame rate                               : 25.000 FPS
Encoded date                             : 2024-01-05 11:29:50 UTC
Writing application                      : mkvmerge v82.0 ('I'm The President') 64-bit
Writing library                          : libebml v1.4.5 + libmatroska v1.7.1

Video
ID                                       : 1
Format                                   : AVC
Format/Info                              : Advanced Video Codec
Format profile                           : High@L4
Format settings                          : CABAC / 4 Ref Frames
Format settings, CABAC                   : Yes
Format settings, Reference frames        : 4 frames
Codec ID                                 : V_MPEG4/ISO/AVC
Duration                                 : 2 h 1 min
Bit rate mode                            : Constant
Bit rate                                 : 5 011 kb/s
Nominal bit rate                         : 5 500 kb/s
Width                                    : 1 920 pixels
Height                                   : 960 pixels
Display aspect ratio                     : 2.000
Frame rate mode                          : Constant
Frame rate                               : 25.000 FPS
Color space                              : YUV
Chroma subsampling                       : 4:2:0
Bit depth                                : 8 bits
Scan type                                : Progressive
Bits/(Pixel*Frame)                       : 0.109
Stream size                              : 4.25 GiB (94%)
Writing library                          : x264 core 155 r2917 0a84d98
Encoding settings                        : cabac=1 / ref=3 / deblock=1:-1:-1 / analyse=0x3:0x113 / me=hex / subme=8 / psy=1 / psy_rd=1.00:0.15 / mixed_ref=1 / me_range=16 / chroma_me=1 / trellis=2 / 8x8dct=1 / cqm=0 / deadzone=21,11 / fast_pskip=1 / chroma_qp_offset=-3 / threads=24 / lookahead_threads=4 / sliced_threads=0 / nr=0 / decimate=1 / interlaced=0 / bluray_compat=0 / constrained_intra=0 / bframes=5 / b_pyramid=2 / b_adapt=1 / b_bias=0 / direct=3 / weightb=1 / open_gop=0 / weightp=2 / keyint=50 / keyint_min=26 / scenecut=0 / intra_refresh=0 / rc_lookahead=50 / rc=cbr / mbtree=1 / bitrate=5500 / ratetol=1.0 / qcomp=0.60 / qpmin=0 / qpmax=69 / qpstep=4 / vbv_maxrate=5500 / vbv_bufsize=11000 / nal_hrd=cbr / filler=1 / ip_ratio=1.40 / aq=1:1.00
Default                                  : Yes
Forced                                   : No

Audio
ID                                       : 2
Format                                   : AAC LC
Format/Info                              : Advanced Audio Codec Low Complexity
Codec ID                                 : 2 / A_AAC-2
Duration                                 : 2 h 1 min
Bit rate                                 : 320 kb/s
Channel(s)                               : 2 channels
Channel layout                           : L R
Sampling rate                            : 48.0 kHz
Frame rate                               : 46.875 FPS (1024 SPF)
Compression mode                         : Lossy
Stream size                              : 278 MiB (6%)
Language                                 : Japanese
Default                                  : Yes
Forced                                   : No

Text #1
ID                                       : 3
Format                                   : UTF-8
Codec ID                                 : S_TEXT/UTF8
Codec ID/Info                            : UTF-8 Plain Text
Duration                                 : 1 h 54 min
Bit rate                                 : 33 b/s
Frame rate                               : 0.167 FPS
Count of elements                        : 1146
Stream size                              : 28.0 KiB (0%)
Language                                 : English
Default                                  : No
Forced                                   : No

Text #2
ID                                       : 4
Format                                   : UTF-8
Codec ID                                 : S_TEXT/UTF8
Codec ID/Info                            : UTF-8 Plain Text
Duration                                 : 1 h 55 min
Bit rate                                 : 36 b/s
Frame rate                               : 0.162 FPS
Count of elements                        : 1121
Stream size                              : 30.5 KiB (0%)
Language                                 : Turkish
Default                                  : No
Forced                                   : No

Code: Select all

https://gofile.io/d/ogOgCH
https://gofile.io/d/IMUgjT
https://gofile.io/d/HiM3Xr
https://gofile.io/d/2ENUMI
https://gofile.io/d/4OcOIq
https://gofile.io/d/DBfTmV

Code: Select all

https://workupload.com/file/naNpAkVYurT
https://workupload.com/file/U2pAQ4rXFWP
https://workupload.com/file/52uAZN3tU8T
https://workupload.com/file/vAKuy2sVhr6
https://workupload.com/file/WzGMGXeWwQb
https://workupload.com/file/SqURmdFbxcn
greycloud
Posts: 11
Likes:
Joined: Fri Feb 07, 2020 11:13 pm

Re: [REQ] Monster AKA Kaibutsu (2023)

Post by greycloud »   1 likes

I've been looking forward to see this movie, thanks for sharing
User avatar
pillowbaker
Posts: 2159
Likes:
Joined: Mon Mar 07, 2022 4:05 am

Re: [REQ] Monster AKA Kaibutsu (2023)

Post by pillowbaker »   1 likes

Thank you DreamScape. I've loved most of what I've seen of Hirokazu Kore-eda's work. The trailer made me want to see this.
aliceclub
Posts: 112
Likes:
Joined: Mon Oct 04, 2021 1:26 am

Re: [REQ] Monster AKA Kaibutsu (2023)

Post by aliceclub »   0 likes

It’s finally ready to watch.
magnet:?xt=urn:btih:81876CE0F4291F5FD3D4672CB6E15F5C1E52D50C
petra
Posts: 116
Likes:
Joined: Fri Apr 29, 2011 1:00 am

Re: [REQ] Monster AKA Kaibutsu (2023)

Post by petra »   1 likes

https://nyaa.mom/view/1763001
Size is 4.5 GB. Too big for my liking. Can watch it on dramanice.la
User avatar
Night457
Global Moderator
Posts: 5369
Likes:
Joined: Sat Dec 28, 2019 3:44 pm

Re: [REQ] Monster AKA Kaibutsu (2023)

Post by Night457 »   1 likes

petra wrote: Sat Feb 10, 2024 10:33 amToo big for my liking.
Another good source for a smaller file for those who torrent is YTS. This is a popular title and a newer release, so it currently has dozens of active seeders.

720p file with English subtitles is 1.09Gb:
https://yts.mx/movies/monster-2023

(They also have 1080p files, which are not large.)
aliceclub
Posts: 112
Likes:
Joined: Mon Oct 04, 2021 1:26 am

Re: [REQ] Monster AKA Kaibutsu (2023)

Post by aliceclub »   0 likes

This is bluray
You do not have the required permissions to view the files attached to this post.
Post Reply