[REL] Ulrikke (TV Series 1986)

User avatar
Infinity
Posts: 83
Likes:
Joined: Sat Aug 14, 2021 8:30 pm
Contact:

[REL] Ulrikke (TV Series 1986)

Post by Infinity »   2 likes

I wasn't sure where to put this but I decided on REQ as there isn't a thread about Ulrikke on FLM. (If there is please forgive my horrible searching skills haha)

It is available at https://tv.nrk.no/serie/ulrikke/ and luckily I don't believe it's location restricted either. The plot seems to focus on five-year old Ulrikke and her dad with Ulrikke being the main focus thankfully. The girl, Ulrikke (Cathrine Marie Andresen) is an absolute cutie! (I have a thing for bangs!)

She's got a sweet face, so if somebody could kindly archive the series on eMule and FLM - that would be greatly appreciated as I can't currently due to hardware issues. There is four episodes on the website I linked however I'm not sure if there's more as I don't speak norwegian unfortunately.

[Image]
[Image]
User avatar
Night457
Global Moderator
Posts: 1863
Likes:
Joined: Sat Dec 28, 2019 3:44 pm

Re: [REQ] Ulrikke (TV Series 1986)

Post by Night457 »   1 likes

Looks cute, thanks! You created a thread topic in the right place.
A series in four parts. (1: 4) Ulrikke is five years old and lives with her father. She can not remember her mother, because she died when Ulrikke was quite small. Because Dad has talked about her so often, Ulrikke thinks she knows Mom well. One day someone comes to visit that Ulrikke has never met before.
Ulrikke (TV Series 1986)
User avatar
Infinity
Posts: 83
Likes:
Joined: Sat Aug 14, 2021 8:30 pm
Contact:

Re: [REQ] Ulrikke (TV Series 1986)

Post by Infinity »   1 likes

Night457 wrote: Sat Jun 18, 2022 9:28 pm Looks cute, thanks! You created a thread topic in the right place.
A series in four parts. (1: 4) Ulrikke is five years old and lives with her father. She can not remember her mother, because she died when Ulrikke was quite small. Because Dad has talked about her so often, Ulrikke thinks she knows Mom well. One day someone comes to visit that Ulrikke has never met before.
Ulrikke (TV Series 1986)
I didn't think to look at the IMDB page, thanks for filling in that detail! :)
[Image]
User avatar
ghost
Site Admin
Posts: 6202
Likes:
Joined: Sun Mar 07, 2004 1:00 am

Re: [REQ] Ulrikke (TV Series 1986)

Post by ghost »   1 likes

Thanks, Infinity! ...Looks cute. :heart
User avatar
Night457
Global Moderator
Posts: 1863
Likes:
Joined: Sat Dec 28, 2019 3:44 pm

[REL] Ulrikke (TV Series 1986)

Post by Night457 »   10 likes

[Image][Image]
[Image][Image]

Sample specifications for one file:
Spoiler:

Complete name : Ulrikke (1986) 4. Hva nå Ulrikke.720p.mp4
Format : MPEG-4
Format profile : Base Media
Codec ID : isom (isom/iso2/avc1/mp41)
File size : 405 MiB
Duration : 23 min 28 s
Overall bit rate : 2 410 kb/s
Writing application : Lavf57.83.100

Video
ID : 1
Format : AVC
Format/Info : Advanced Video Codec
Format profile : High@L3.1
Format settings : CABAC / 5 Ref Frames
Format settings, CABAC : Yes
Format settings, Reference fra : 5 frames
Codec ID : avc1
Codec ID/Info : Advanced Video Coding
Duration : 23 min 28 s
Bit rate : 2 250 kb/s
Width : 1 280 pixels
Height : 720 pixels
Display aspect ratio : 16:9
Frame rate mode : Constant
Frame rate : 25.000 FPS
Color space : YUV
Chroma subsampling : 4:2:0
Bit depth : 8 bits
Scan type : Progressive
Bits/(Pixel*Frame) : 0.098
Stream size : 377 MiB (93%)
Writing library : x264 core 129
Encoding settings : cabac=1 / ref=5 / deblock=1:0:0 / analyse=0x3:0x113 / me=hex / subme=7 / psy=0 / mixed_ref=1 / me_range=16 / chroma_me=1 / trellis=1 / 8x8dct=1 / cqm=0 / deadzone=21,11 / fast_pskip=1 / chroma_qp_offset=0 / threads=7 / lookahead_threads=1 / sliced_threads=0 / nr=0 / decimate=1 / interlaced=0 / bluray_compat=0 / constrained_intra=0 / bframes=3 / b_pyramid=2 / b_adapt=1 / b_bias=0 / direct=1 / weightb=1 / open_gop=0 / weightp=2 / keyint=125 / keyint_min=12 / scenecut=0 / intra_refresh=0 / rc_lookahead=60 / rc=abr / mbtree=1 / bitrate=2250 / ratetol=1.0 / qcomp=0.60 / qpmin=0 / qpmax=69 / qpstep=4 / vbv_maxrate=2812 / vbv_bufsize=4500 / nal_hrd=none / ip_ratio=1.00 / aq=2:1.00
Codec configuration box : avcC

Audio
ID : 2
Format : AAC LC
Format/Info : Advanced Audio Codec Low Complexity
Codec ID : mp4a-40-2
Duration : 23 min 28 s
Bit rate mode : Constant
Bit rate : 160 kb/s
Channel(s) : 2 channels
Channel layout : L R
Sampling rate : 48.0 kHz
Frame rate : 46.875 FPS (1024 SPF)
Compression mode : Lossy
Stream size : 26.9 MiB (7%)
Default : Yes
Alternate group : 1
Episodes:
1. Ulrikke and Papa
2. Ulrikke and the troll
3. Ulrikke becomes ill
4. What now Ulrikke?

720p Norwegian audio without subtitles:
Like this post to see ed2k links  [304.78 Mb]
Like this post to see ed2k links  [317.42 Mb]
Like this post to see ed2k links  [385.83 Mb]
Like this post to see ed2k links  [404.56 Mb]
Post Reply