[REL] Le Témoin (1978)

User avatar
ghost
Site Admin
Posts: 6919
Likes:
Joined: Sun Mar 07, 2004 1:00 am

Re: [REL] Le Témoin (1978)

Post by ghost »   0 likes

I didn't know, that a Bluray does really exist! :o

I found nothing at all in real HD, when preparing my upscale.

So thanks a lot for finding and releasing!!!
User avatar
Night457
Global Moderator
Posts: 3056
Likes:
Joined: Sat Dec 28, 2019 3:44 pm

Re: [REL] Le Témoin (1978)

Post by Night457 »   0 likes

ghost wrote: Tue Jul 05, 2022 6:48 pm I didn't know, that a Bluray does really exist! :o
I did not know either. Thankfully we have members like massiveattack who stay on top of the private torrent sites.

Your most recent version was February 16, and a blu-ray was released in France on May 04. So at the time you made it, you were NOT overlooking anything!
User avatar
ghost
Site Admin
Posts: 6919
Likes:
Joined: Sun Mar 07, 2004 1:00 am

Re: [REL] Le Témoin (1978)

Post by ghost »   0 likes

So at the time you made it, you were NOT overlooking anything!
Anyways, we have it now. Thanks again!
lunastar2021
Posts: 209
Likes:
Joined: Fri Aug 27, 2021 10:59 am

Re: [REL] Le Témoin (1978)

Post by lunastar2021 »   0 likes

a very good film but unfortunately i only have it in french
User avatar
Night457
Global Moderator
Posts: 3056
Likes:
Joined: Sat Dec 28, 2019 3:44 pm

Re: [REL] Le Témoin (1978)

Post by Night457 »   1 likes

lunastar2021 wrote: Sun Aug 14, 2022 10:54 am a very good film but unfortunately i only have it in french
Go back a page and I posted English subtitles, both in a zip file and an ed2k link.

Subtitles in Portuguese, English, Italian, and Spanish here:
https://www.opensubtitles.org/en/search ... ovie-39797
They may require a resync.

Lower quality video with Russian dub: https://ok.ru/video/259100576321
weepee
Posts: 2
Likes:
Joined: Sat May 25, 2013 8:48 am

Re: [REL] Le Témoin (1978)

Post by weepee »   0 likes

Night457 wrote: Tue Jul 05, 2022 2:43 pm [Image]
Specifications:
Spoiler:

Complete name : Le témoin (1978),1080P.BDRIP.X264.DTS-2.0.mkv
Format : Matroska
Format version : Version 4 / Version 2
File size : 7.95 GiB
Duration : 1 h 33 min
Overall bit rate : 12.1 Mb/s
Encoded date : UTC 2022-06-19 21:47:34
Writing application : mkvmerge v68.0.0 ('The Curtain') 64-bit
Writing library : libebml v1.4.2 + libmatroska v1.6.4

Video
ID : 1
Format : AVC
Format/Info : Advanced Video Codec
Format profile : High@L4.1
Format settings : CABAC / 4 Ref Frames
Format settings, CABAC : Yes
Format settings, Reference fra : 4 frames
Codec ID : V_MPEG4/ISO/AVC
Duration : 1 h 33 min
Bit rate : 10.6 Mb/s
Width : 1 792 pixels
Height : 1 080 pixels
Display aspect ratio : 5:3
Frame rate mode : Constant
Frame rate : 24.000 FPS
Color space : YUV
Chroma subsampling : 4:2:0
Bit depth : 8 bits
Scan type : Progressive
Bits/(Pixel*Frame) : 0.229
Stream size : 6.96 GiB (88%)
Writing library : x264 core 160 r3000 33f9e14
Encoding settings : cabac=1 / ref=4 / deblock=1:-3:-3 / analyse=0x3:0x133 / me=umh / subme=9 / psy=1 / psy_rd=1.00:0.00 /

mixed_ref=1 / me_range=32 / chroma_me=1 / trellis=2 / 8x8dct=1 / cqm=0 / deadzone=21,11 / fast_pskip=0 / chroma_qp_offset=-2 /

threads=34 / lookahead_threads=5 / sliced_threads=0 / nr=0 / decimate=1 / interlaced=0 / bluray_compat=0 / constrained_intra=0 / bframes=7 /

b_pyramid=2 / b_adapt=2 / b_bias=0 / direct=3 / weightb=1 / open_gop=0 / weightp=2 / keyint=240 / keyint_min=24 / scenecut=40 /

intra_refresh=0 / rc_lookahead=40 / rc=2pass / mbtree=1 / bitrate=10640 / ratetol=1.0 / qcomp=0.60 / qpmin=0 / qpmax=69 / qpstep=4 /

cplxblur=20.0 / qblur=0.5 / vbv_maxrate=62500 / vbv_bufsize=78125 / nal_hrd=none / filler=0 / ip_ratio=1.40 / aq=1:1.00
Language : English
Default : Yes
Forced : No

Audio
ID : 2
Format : DTS
Format/Info : Digital Theater Systems
Codec ID : A_DTS
Duration : 1 h 33 min
Bit rate mode : Constant
Bit rate : 1 509 kb/s
Channel(s) : 2 channels
Channel layout : L R
Sampling rate : 48.0 kHz
Frame rate : 93.750 FPS (512 SPF)
Bit depth : 24 bits
Compression mode : Lossy
Stream size : 1 011 MiB (12%)
Language : French
Default : Yes
Forced : No

Menu
00:00:00.000 : :Chapter 01
00:10:25.625 : :Chapter 02
00:22:10.583 : :Chapter 03
00:32:52.500 : :Chapter 04
00:44:52.625 : :Chapter 05
00:56:14.458 : :Chapter 06
01:06:37.291 : :Chapter 07
01:20:23.666 : :Chapter 08
Sourced from torrent in previous post!
1080p French audio, optional English subtitles:

Le témoin (1978),1080P.BDRIP.X264.DTS-2.0.mkv
Le témoin (1978),1080P.BDRIP.X264.DTS-2.0.srt
Could you please upload it to a ddl site such as mega or ulozto?
User avatar
Night457
Global Moderator
Posts: 3056
Likes:
Joined: Sat Dec 28, 2019 3:44 pm

Re: [REL] Le Témoin (1978)

Post by Night457 »   3 likes

OK. 16 RARs totaling 7.47Gb for the video:

Code: Select all

https://mega.nz/file/bAIwlQBa#krrv-SnIB_syHU8Sy1KU0iSlTsFg7rRDQM3BRkbKBuA
https://mega.nz/file/LdhVQKhC#gvOZ4FL9T4KsxrPVdv34Kb3OSKFCUJwfw1dHevoghkg
https://mega.nz/file/XBJHwaaT#G0vNLl0nZiMYf6-BTs9BEPd2CxY7gDJ5NLA_RQ38HRs
https://mega.nz/file/edww0BiL#HZJiQffeOiAxgqgo2KhqZhA47bcp_PLwSUbhp9lTGEc
https://mega.nz/file/yARniLJT#uCjs6xfrTS9iO92AJODx-aOIkURA5k1ramP1Gqem3CY
https://mega.nz/file/bRgAyZaD#BEHc_TM8kTgo0OrIqzMpnOMFwApAn0_LElLwfqy5tNI
https://mega.nz/file/2UQxkbyL#pHHEx9JS7p1cs7_Ee-EOcK56deQKwi_M_K582oUWHxY
https://mega.nz/file/WIhyRByJ#4hoAjSP8DnUVbgAnq7PMXm-fMowXlHXHbFjw2NVeqok
https://mega.nz/file/qN4wXLib#meGQu8FDRS53ynIal2B6q_0IHhqmZT63iMm1dIYwoX0
https://mega.nz/file/DI5VlBjT#inLGNeud-U9oBHCbYeOXclEWouBeqoKRPujYej2BgM4
https://mega.nz/file/XRhhRLCC#ZGxPVldfV6rRyL7NUWihawG6hP3mGr6hgoM76GKkFmA
https://mega.nz/file/TEY0zSaA#gVFVsSvoLipb66xOl9Bis89KySCbFza-YM8MWORVdmM
https://mega.nz/file/GYQEzIKC#1T8Fv6Ehpv7pYDc1xT34_4JS-VkABBV_9jSJaKEXtm8
https://mega.nz/file/bFZhWYZD#TNuLqrm_pd1X7M_VXHLCURbd284hw8wi2frK8i6edrA
https://mega.nz/file/XQYFWBQZ#2zBuvAk8dHBYP6kLZTyGByw_kWs9Zgsnd9q2VNPVoM8
https://mega.nz/file/PB4GWACB#acupAmC-hE8VjBATP8yIinbQppp0GgJ-oi7KqVfY8D0
English subtitles are still posted here: viewtopic.php?p=94518#p94518

I am also still emuling them both, from this post here: viewtopic.php?p=94520#p94520
Post Reply